The text below is selected, press Ctrl+C to copy to your clipboard. (⌘+C on Mac) No line numbers will be copied.
Halloween Kills (2021) EXTENDED 1080p

14th January 2022 08:01:24 AM | Views: 48
  1. Format                                   : Matroska
  2. Format version                           : Version 4
  3. File size                                : 5.98 GiB
  4. Duration                                 : 1 h 49 min
  5. Overall bit rate mode                    : Variable
  6. Overall bit rate                         : 7 843 kb/s
  7. Movie name                               : Halloween Kills (2021) EXTENDED 1080p BluRay x264 English DTS-HD MA 7.1 MSubs 5.97GB [www.MoviezAddiction.art]
  8. Encoded date                             : UTC 2022-01-14 01:52:00
  9. Writing application                      : mkvmerge v47.0.0 ('Black Flag') 64-bit
  10. Writing library                          : libebml v1.3.10 + libmatroska v1.5.2
  11.  
  12. Video
  13. ID                                       : 1
  14. Format                                   : AVC
  15. Format/Info                              : Advanced Video Codec
  16. Format profile                           : [email protected]
  17. Format settings                          : CABAC / 5 Ref Frames
  18. Format settings, CABAC                   : Yes
  19. Format settings, Reference frames        : 5 frames
  20. Codec ID                                 : V_MPEG4/ISO/AVC
  21. Duration                                 : 1 h 49 min
  22. Bit rate                                 : 4 000 kb/s
  23. Width                                    : 1 920 pixels
  24. Height                                   : 808 pixels
  25. Display aspect ratio                     : 2.40:1
  26. Frame rate mode                          : Variable
  27. Frame rate                               : 23.976 (24000/1001) FPS
  28. Color space                              : YUV
  29. Chroma subsampling                       : 4:2:0
  30. Bit depth                                : 8 bits
  31. Scan type                                : Progressive
  32. Bits/(Pixel*Frame)                       : 0.108
  33. Stream size                              : 3.05 GiB (51%)
  34. Title                                    : [www.MoviezAddiction.art]
  35. Default                                  : Yes
  36. Forced                                   : No
  37.  
  38. Audio
  39. ID                                       : 2
  40. Format                                   : DTS XLL
  41. Format/Info                              : Digital Theater Systems
  42. Commercial name                          : DTS-HD Master Audio
  43. Codec ID                                 : A_DTS
  44. Duration                                 : 1 h 49 min
  45. Bit rate mode                            : Variable
  46. Bit rate                                 : 3 727 kb/s
  47. Channel(s)                               : 8 channels
  48. Channel layout                           : C L R LFE Lb Rb Lss Rss
  49. Sampling rate                            : 48.0 kHz
  50. Frame rate                               : 93.750 FPS (512 SPF)
  51. Bit depth                                : 24 bits
  52. Compression mode                         : Lossless
  53. Stream size                              : 2.84 GiB (48%)
  54. Title                                    : [www.MoviezAddiction.art] - English
  55. Language                                 : English
  56. Default                                  : Yes
  57. Forced                                   : No
  58.  
  59. Text #1
  60. ID                                       : 3
  61. Format                                   : PGS
  62. Codec ID                                 : S_HDMV/PGS
  63. Codec ID/Info                            : Picture based subtitle format used on BDs/HD-DVDs
  64. Duration                                 : 1 h 45 min
  65. Bit rate                                 : 40.0 kb/s
  66. Count of elements                        : 2980
  67. Stream size                              : 30.1 MiB (0%)
  68. Title                                    : [www.MoviezAddiction.art] - English [PGS]
  69. Language                                 : English
  70. Default                                  : Yes
  71. Forced                                   : No
  72.  
  73. Text #2
  74. ID                                       : 4
  75. Format                                   : PGS
  76. Codec ID                                 : S_HDMV/PGS
  77. Codec ID/Info                            : Picture based subtitle format used on BDs/HD-DVDs
  78. Duration                                 : 1 h 44 min
  79. Bit rate                                 : 77.7 kb/s
  80. Count of elements                        : 3990
  81. Stream size                              : 57.9 MiB (1%)
  82. Title                                    : [www.MoviezAddiction.art] - English [SDH] [PGS]
  83. Language                                 : English
  84. Default                                  : No
  85. Forced                                   : No
  86.  
  87. Menu
  88. 00:00:00.000                             : Chapter 01
  89. 00:08:17.788                             : Chapter 02
  90. 00:15:10.659                             : Chapter 03
  91. 00:19:55.110                             : Chapter 04
  92. 00:26:17.576                             : Chapter 05
  93. 00:32:31.950                             : Chapter 06
  94. 00:38:01.612                             : Chapter 07
  95. 00:42:30.214                             : Chapter 08
  96. 00:46:52.935                             : Chapter 09
  97. 00:49:09.112                             : Chapter 10
  98. 00:55:07.721                             : Chapter 11
  99. 01:01:32.980                             : Chapter 12
  100. 01:06:04.585                             : Chapter 13
  101. 01:11:29.493                             : Chapter 14
  102. 01:16:19.408                             : Chapter 15
  103. 01:22:15.722                             : Chapter 16
  104. 01:26:25.805                             : Chapter 17
  105. 01:30:06.609                             : Chapter 18
  106. 01:35:24.593                             : Chapter 19
  107. 01:44:07.658                             : Chapter 20