The text below is selected, press Ctrl+C to copy to your clipboard. (⌘+C on Mac) No line numbers will be copied.
Event Horizon 1080p

25th June 2020 08:28:59 PM | Views: 38
  1. General
  2. Unique ID                                : 300067177050363611868767354534575229388 (0xE1BED60EA419949CCBF2C374F41449CC)
  3. Complete name                            : S:\Event Horizon working\Event Horizon (1997) 1080p BluRay x264 Dual Audio [Hindi DD5.1 + English DD5.1] MSubs - [Www.MoviezAddiction.Site].mkv
  4. Format                                   : Matroska
  5. Format version                           : Version 4
  6. File size                                : 4.24 GiB
  7. Duration                                 : 1 h 36 min
  8. Overall bit rate                         : 6 296 kb/s
  9. Movie name                               : Event Horizon (1997) 1080p BluRay x264 Dual Audio [Hindi DD5.1 + English DD5.1] MSubs - [Www.MoviezAddiction.Site]
  10. Encoded date                             : UTC 2020-06-22 17:34:01
  11. Writing application                      : mkvmerge v47.0.0 ('Black Flag') 64-bit
  12. Writing library                          : libebml v1.3.10 + libmatroska v1.5.2
  13.  
  14. Video
  15. ID                                       : 1
  16. Format                                   : AVC
  17. Format/Info                              : Advanced Video Codec
  18. Format profile                           : [email protected]
  19. Format settings                          : CABAC / 5 Ref Frames
  20. Format settings, CABAC                   : Yes
  21. Format settings, Reference frames        : 5 frames
  22. Codec ID                                 : V_MPEG4/ISO/AVC
  23. Duration                                 : 1 h 35 min
  24. Bit rate                                 : 5 000 kb/s
  25. Width                                    : 1 920 pixels
  26. Height                                   : 816 pixels
  27. Display aspect ratio                     : 2.35:1
  28. Frame rate mode                          : Constant
  29. Frame rate                               : 23.976 (24000/1001) FPS
  30. Color space                              : YUV
  31. Chroma subsampling                       : 4:2:0
  32. Bit depth                                : 8 bits
  33. Scan type                                : Progressive
  34. Bits/(Pixel*Frame)                       : 0.133
  35. Stream size                              : 3.35 GiB (79%)
  36. Title                                    : [Www.MoviezAddiction.Site]
  37. Writing library                          : x264 core 157 r2969 d4099dd
  38. Encoding settings                        : cabac=1 / ref=5 / deblock=1:-1:-1 / analyse=0x3:0x113 / me=umh / subme=9 / psy=1 / psy_rd=1.00:0.15 / mixed_ref=1 / me_range=18 / chroma_me=1 / trellis=2 / 8x8dct=1 / cqm=0 / deadzone=21,11 / fast_pskip=1 / chroma_qp_offset=-3 / threads=25 / lookahead_threads=2 / sliced_threads=0 / nr=1000 / decimate=1 / interlaced=0 / bluray_compat=0 / constrained_intra=0 / bframes=3 / b_pyramid=2 / b_adapt=1 / b_bias=0 / direct=3 / weightb=1 / open_gop=0 / weightp=2 / keyint=240 / keyint_min=23 / scenecut=40 / intra_refresh=0 / rc_lookahead=50 / rc=2pass / mbtree=1 / bitrate=5000 / ratetol=1.0 / qcomp=0.60 / qpmin=0 / qpmax=69 / qpstep=4 / cplxblur=20.0 / qblur=0.5 / vbv_maxrate=62500 / vbv_bufsize=78125 / nal_hrd=none / filler=0 / ip_ratio=1.40 / aq=1:1.00
  39. Language                                 : English
  40. Default                                  : Yes
  41. Forced                                   : No
  42. Color range                              : Limited
  43. Color primaries                          : Generic film
  44. Transfer characteristics                 : BT.709
  45. Matrix coefficients                      : BT.709
  46.  
  47. Audio #1
  48. ID                                       : 2
  49. Format                                   : AC-3
  50. Format/Info                              : Audio Coding 3
  51. Commercial name                          : Dolby Digital
  52. Codec ID                                 : A_AC3
  53. Duration                                 : 1 h 36 min
  54. Bit rate mode                            : Constant
  55. Bit rate                                 : 640 kb/s
  56. Channel(s)                               : 6 channels
  57. Channel layout                           : L R C LFE Ls Rs
  58. Sampling rate                            : 48.0 kHz
  59. Frame rate                               : 31.250 FPS (1536 SPF)
  60. Compression mode                         : Lossy
  61. Delay relative to video                  : 1 s 50 ms
  62. Stream size                              : 441 MiB (10%)
  63. Title                                    : [Www.MoviezAddiction.Site]
  64. Language                                 : Hindi
  65. Service kind                             : Complete Main
  66. Default                                  : Yes
  67. Forced                                   : Yes
  68.  
  69. Audio #2
  70. ID                                       : 3
  71. Format                                   : AC-3
  72. Format/Info                              : Audio Coding 3
  73. Commercial name                          : Dolby Digital
  74. Codec ID                                 : A_AC3
  75. Duration                                 : 1 h 35 min
  76. Bit rate mode                            : Constant
  77. Bit rate                                 : 640 kb/s
  78. Channel(s)                               : 6 channels
  79. Channel layout                           : L R C LFE Ls Rs
  80. Sampling rate                            : 48.0 kHz
  81. Frame rate                               : 31.250 FPS (1536 SPF)
  82. Compression mode                         : Lossy
  83. Stream size                              : 439 MiB (10%)
  84. Title                                    : [Www.MoviezAddiction.Site]
  85. Language                                 : English
  86. Service kind                             : Complete Main
  87. Default                                  : No
  88. Forced                                   : No
  89.  
  90. Text #1
  91. ID                                       : 4
  92. Format                                   : PGS
  93. Muxing mode                              : zlib
  94. Codec ID                                 : S_HDMV/PGS
  95. Codec ID/Info                            : Picture based subtitle format used on BDs/HD-DVDs
  96. Duration                                 : 1 h 29 min
  97. Bit rate                                 : 24.3 kb/s
  98. Count of elements                        : 2122
  99. Stream size                              : 15.5 MiB (0%)
  100. Title                                    : [Www.MoviezAddiction.Site]
  101. Language                                 : Hindi
  102. Default                                  : Yes
  103. Forced                                   : No
  104.  
  105. Text #2
  106. ID                                       : 5
  107. Format                                   : PGS
  108. Muxing mode                              : zlib
  109. Codec ID                                 : S_HDMV/PGS
  110. Codec ID/Info                            : Picture based subtitle format used on BDs/HD-DVDs
  111. Duration                                 : 1 h 26 min
  112. Bit rate                                 : 34.0 kb/s
  113. Count of elements                        : 2044
  114. Stream size                              : 21.2 MiB (0%)
  115. Title                                    : [Www.MoviezAddiction.Site]
  116. Language                                 : English
  117. Default                                  : No
  118. Forced                                   : No
  119.  
  120. Text #3
  121. ID                                       : 6
  122. Format                                   : PGS
  123. Muxing mode                              : zlib
  124. Codec ID                                 : S_HDMV/PGS
  125. Codec ID/Info                            : Picture based subtitle format used on BDs/HD-DVDs
  126. Duration                                 : 1 h 28 min
  127. Bit rate                                 : 35.0 kb/s
  128. Count of elements                        : 2140
  129. Stream size                              : 22.1 MiB (1%)
  130. Title                                    : [Www.MoviezAddiction.Site]
  131. Language                                 : English
  132. Default                                  : No
  133. Forced                                   : No
  134.  
  135. Text #4
  136. ID                                       : 7
  137. Format                                   : PGS
  138. Muxing mode                              : zlib
  139. Codec ID                                 : S_HDMV/PGS
  140. Codec ID/Info                            : Picture based subtitle format used on BDs/HD-DVDs
  141. Duration                                 : 1 h 32 min
  142. Bit rate                                 : 50.9 kb/s
  143. Count of elements                        : 2370
  144. Stream size                              : 33.8 MiB (1%)
  145. Title                                    : [Www.MoviezAddiction.Site]
  146. Language                                 : English
  147. Default                                  : No
  148. Forced                                   : No