The text below is selected, press Ctrl+C to copy to your clipboard. (⌘+C on Mac) No line numbers will be copied.
Vengeance (2022) 1080p BluRay REMUX...

14th November 2022 06:59:45 AM | Views: 12
  1. Format                                   : Matroska
  2. Format version                           : Version 4
  3. File size                                : 29.2 GiB
  4. Duration                                 : 1 h 48 min
  5. Overall bit rate mode                    : Variable
  6. Overall bit rate                         : 38.6 Mb/s
  7. Movie name                               : Vengeance (2022) 1080p BluRay REMUX x264 Dual Audio [Hindi DDP5.1 + English DTS-HD MA 5.1] ESub 29.1GB [MoviezAddiction.life]
  8. Encoded date                             : UTC 2022-11-13 08:53:54
  9. Writing application                      : mkvmerge v71.1.0 ('Fortitude') 64-bit
  10. Writing library                          : libebml v1.4.4 + libmatroska v1.7.1
  11.  
  12. Video
  13. ID                                       : 1
  14. ID in the original source medium         : 4113 (0x1011)
  15. Format                                   : AVC
  16. Format/Info                              : Advanced Video Codec
  17. Format profile                           : [email protected]
  18. Format settings                          : CABAC / 4 Ref Frames
  19. Format settings, CABAC                   : Yes
  20. Format settings, Reference frames        : 4 frames
  21. Codec ID                                 : V_MPEG4/ISO/AVC
  22. Duration                                 : 1 h 47 min
  23. Bit rate mode                            : Variable
  24. Bit rate                                 : 34.8 Mb/s
  25. Maximum bit rate                         : 38.0 Mb/s
  26. Width                                    : 1 920 pixels
  27. Height                                   : 1 080 pixels
  28. Display aspect ratio                     : 16:9
  29. Frame rate mode                          : Constant
  30. Frame rate                               : 23.976 (24000/1001) FPS
  31. Color space                              : YUV
  32. Chroma subsampling                       : 4:2:0
  33. Bit depth                                : 8 bits
  34. Scan type                                : Progressive
  35. Bits/(Pixel*Frame)                       : 0.700
  36. Stream size                              : 26.2 GiB (90%)
  37. Default                                  : Yes
  38. Forced                                   : No
  39. Original source medium                   : Blu-ray
  40.  
  41. Audio #1
  42. ID                                       : 2
  43. Format                                   : E-AC-3
  44. Format/Info                              : Enhanced AC-3
  45. Commercial name                          : Dolby Digital Plus
  46. Codec ID                                 : A_EAC3
  47. Duration                                 : 1 h 48 min
  48. Bit rate mode                            : Constant
  49. Bit rate                                 : 640 kb/s
  50. Channel(s)                               : 6 channels
  51. Channel layout                           : L R C LFE Ls Rs
  52. Sampling rate                            : 48.0 kHz
  53. Frame rate                               : 31.250 FPS (1536 SPF)
  54. Compression mode                         : Lossy
  55. Delay relative to video                  : -24 s 357 ms
  56. Stream size                              : 495 MiB (2%)
  57. Title                                    : Hindi
  58. Language                                 : Hindi
  59. Service kind                             : Complete Main
  60. Default                                  : Yes
  61. Forced                                   : No
  62.  
  63. Audio #2
  64. ID                                       : 3
  65. ID in the original source medium         : 4352 (0x1100)
  66. Format                                   : DTS XLL
  67. Format/Info                              : Digital Theater Systems
  68. Commercial name                          : DTS-HD Master Audio
  69. Codec ID                                 : A_DTS
  70. Duration                                 : 1 h 47 min
  71. Bit rate mode                            : Variable
  72. Bit rate                                 : 3 306 kb/s
  73. Channel(s)                               : 6 channels
  74. Channel layout                           : C L R Ls Rs LFE
  75. Sampling rate                            : 48.0 kHz
  76. Frame rate                               : 93.750 FPS (512 SPF)
  77. Bit depth                                : 24 bits
  78. Compression mode                         : Lossless
  79. Stream size                              : 2.49 GiB (9%)
  80. Title                                    : English
  81. Language                                 : English
  82. Default                                  : No
  83. Forced                                   : No
  84. Original source medium                   : Blu-ray
  85.  
  86. Text
  87. ID                                       : 4
  88. ID in the original source medium         : 4608 (0x1200)
  89. Format                                   : PGS
  90. Codec ID                                 : S_HDMV/PGS
  91. Codec ID/Info                            : Picture based subtitle format used on BDs/HD-DVDs
  92. Duration                                 : 1 h 41 min
  93. Bit rate                                 : 59.7 kb/s
  94. Frame rate                               : 0.705 FPS
  95. Count of elements                        : 4290
  96. Stream size                              : 43.3 MiB (0%)
  97. Title                                    : English [PGS]
  98. Language                                 : English
  99. Default                                  : Yes
  100. Forced                                   : No
  101. Original source medium                   : Blu-ray
  102.  
  103. Menu
  104. 00:00:24.357                             : en:Chapter 01
  105. 00:05:38.754                             : en:Chapter 02
  106. 00:11:44.286                             : en:Chapter 03
  107. 00:14:48.929                             : en:Chapter 04
  108. 00:22:38.523                             : en:Chapter 05
  109. 00:32:06.257                             : en:Chapter 06
  110. 00:37:08.517                             : en:Chapter 07
  111. 00:41:26.650                             : en:Chapter 08
  112. 00:48:14.557                             : en:Chapter 09
  113. 00:51:00.807                             : en:Chapter 10
  114. 00:55:34.413                             : en:Chapter 11
  115. 01:01:46.869                             : en:Chapter 12
  116. 01:03:39.815                             : en:Chapter 13
  117. 01:08:22.347                             : en:Chapter 14
  118. 01:12:03.985                             : en:Chapter 15
  119. 01:20:43.963                             : en:Chapter 16
  120. 01:26:54.083                             : en:Chapter 17
  121. 01:30:49.818                             : en:Chapter 18
  122. 01:40:23.058                             : en:Chapter 19
  123. 01:42:28.016                             : en:Chapter 20