The text below is selected, press Ctrl+C to copy to your clipboard. (⌘+C on Mac) No line numbers will be copied.
Sing 2 (2021) 2160p 10bit...

9th January 2022 05:52:02 AM | Views: 16
  1. Format                                   : Matroska
  2. Format version                           : Version 4
  3. File size                                : 19.4 GiB
  4. Duration                                 : 1 h 49 min
  5. Overall bit rate                         : 25.3 Mb/s
  6. Movie name                               : Sing 2 (2021) 2160p UHD WEB-DL x265 10bit HDR HEVC English DDP5.1 Atmos MSubs 19.3GB [www.MoviezAddiction.art]
  7. Encoded date                             : UTC 2022-01-09 01:52:22
  8. Writing application                      : mkvmerge v47.0.0 ('Black Flag') 64-bit
  9. Writing library                          : libebml v1.3.10 + libmatroska v1.5.2
  10.  
  11. Video
  12. ID                                       : 1
  13. Format                                   : HEVC
  14. Format/Info                              : High Efficiency Video Coding
  15. Format profile                           : Main [email protected]@High
  16. HDR format                               : SMPTE ST 2086, HDR10 compatible
  17. Codec ID                                 : V_MPEGH/ISO/HEVC
  18. Duration                                 : 1 h 49 min
  19. Bit rate                                 : 24.5 Mb/s
  20. Width                                    : 3 840 pixels
  21. Height                                   : 2 074 pixels
  22. Display aspect ratio                     : 1.85:1
  23. Frame rate mode                          : Constant
  24. Frame rate                               : 23.976 FPS
  25. Color space                              : YUV
  26. Chroma subsampling                       : 4:2:0 (Type 2)
  27. Bit depth                                : 10 bits
  28. Bits/(Pixel*Frame)                       : 0.128
  29. Stream size                              : 18.8 GiB (97%)
  30. Title                                    : [www.MoviezAddiction.art]
  31. Default                                  : Yes
  32. Forced                                   : No
  33. Color range                              : Limited
  34. Color primaries                          : BT.2020
  35. Transfer characteristics                 : PQ
  36. Matrix coefficients                      : BT.2020 non-constant
  37. Mastering display color primaries        : BT.2020
  38. Mastering display luminance              : min: 0.0050 cd/m2, max: 1000 cd/m2
  39. Maximum Content Light Level              : 1643 cd/m2
  40. Maximum Frame-Average Light Level        : 942 cd/m2
  41.  
  42. Audio
  43. ID                                       : 2
  44. Format                                   : E-AC-3 JOC
  45. Format/Info                              : Enhanced AC-3 with Joint Object Coding
  46. Commercial name                          : Dolby Digital Plus with Dolby Atmos
  47. Codec ID                                 : A_EAC3
  48. Duration                                 : 1 h 49 min
  49. Bit rate mode                            : Constant
  50. Bit rate                                 : 768 kb/s
  51. Channel(s)                               : 6 channels
  52. Channel layout                           : L R C LFE Ls Rs
  53. Sampling rate                            : 48.0 kHz
  54. Frame rate                               : 31.250 FPS (1536 SPF)
  55. Compression mode                         : Lossy
  56. Stream size                              : 603 MiB (3%)
  57. Title                                    : [www.MoviezAddiction.art] - English
  58. Language                                 : English
  59. Service kind                             : Complete Main
  60. Default                                  : Yes
  61. Forced                                   : No
  62. Complexity index                         : 16
  63. Number of dynamic objects                : 15
  64. Bed channel count                        : 1 channel
  65. Bed channel configuration                : LFE
  66.  
  67. Text #1
  68. ID                                       : 3
  69. Format                                   : UTF-8
  70. Codec ID                                 : S_TEXT/UTF8
  71. Codec ID/Info                            : UTF-8 Plain Text
  72. Duration                                 : 1 h 44 min
  73. Bit rate                                 : 81 b/s
  74. Count of elements                        : 2072
  75. Stream size                              : 62.1 KiB (0%)
  76. Title                                    : [www.MoviezAddiction.art] - English [SRT]
  77. Language                                 : English
  78. Default                                  : Yes
  79. Forced                                   : No
  80.  
  81. Text #2
  82. ID                                       : 4
  83. Format                                   : UTF-8
  84. Codec ID                                 : S_TEXT/UTF8
  85. Codec ID/Info                            : UTF-8 Plain Text
  86. Duration                                 : 1 h 49 min
  87. Bit rate                                 : 90 b/s
  88. Count of elements                        : 2403
  89. Stream size                              : 72.4 KiB (0%)
  90. Title                                    : [www.MoviezAddiction.art] - English [SDH] [SRT]
  91. Language                                 : English
  92. Default                                  : No
  93. Forced                                   : No