The text below is selected, press Ctrl+C to copy to your clipboard. (⌘+C on Mac) No line numbers will be copied.
Suicide Squad (2016) EXTENDED 720p...

16th January 2023 02:58:46 PM | Views: 20
  1. Format                                   : Matroska
  2. Format version                           : Version 4
  3. File size                                : 1.37 GiB
  4. Duration                                 : 2 h 14 min
  5. Overall bit rate                         : 1 454 kb/s
  6. Movie name                               : Suicide Squad (2016) EXTENDED 720p BluRay x264 Dual Audio [Hindi SDTV-DL DD2.0 + English BD5.1] ESub 1.36GB [MoviezAddiction]
  7. Encoded date                             : UTC 2023-01-16 02:17:47
  8. Writing application                      : mkvmerge v72.0.0 ('Minuano (Six-eight)') 64-bit
  9. Writing library                          : libebml v1.4.4 + libmatroska v1.7.1
  10.  
  11. Video
  12. ID                                       : 1
  13. Format                                   : AVC
  14. Format/Info                              : Advanced Video Codec
  15. Format profile                           : [email protected]
  16. Format settings                          : CABAC / 4 Ref Frames
  17. Format settings, CABAC                   : Yes
  18. Format settings, Reference frames        : 4 frames
  19. Codec ID                                 : V_MPEG4/ISO/AVC
  20. Duration                                 : 2 h 14 min
  21. Bit rate                                 : 1 099 kb/s
  22. Width                                    : 1 280 pixels
  23. Height                                   : 534 pixels
  24. Display aspect ratio                     : 2.40:1
  25. Frame rate mode                          : Variable
  26. Frame rate                               : 23.976 (24000/1001) FPS
  27. Color space                              : YUV
  28. Chroma subsampling                       : 4:2:0
  29. Bit depth                                : 8 bits
  30. Scan type                                : Progressive
  31. Bits/(Pixel*Frame)                       : 0.067
  32. Stream size                              : 1.03 GiB (76%)
  33. Default                                  : Yes
  34. Forced                                   : No
  35.  
  36. Audio #1
  37. ID                                       : 2
  38. Format                                   : AAC LC
  39. Format/Info                              : Advanced Audio Codec Low Complexity
  40. Codec ID                                 : A_AAC-2
  41. Duration                                 : 2 h 14 min
  42. Bit rate                                 : 128 kb/s
  43. Channel(s)                               : 2 channels
  44. Channel layout                           : L R
  45. Sampling rate                            : 48.0 kHz
  46. Frame rate                               : 46.875 FPS (1024 SPF)
  47. Compression mode                         : Lossy
  48. Stream size                              : 123 MiB (9%)
  49. Title                                    : Hindi
  50. Language                                 : Hindi
  51. Default                                  : Yes
  52. Forced                                   : No
  53.  
  54. Audio #2
  55. ID                                       : 3
  56. Format                                   : AAC LC SBR
  57. Format/Info                              : Advanced Audio Codec Low Complexity with Spectral Band Replication
  58. Commercial name                          : HE-AAC
  59. Format settings                          : Explicit
  60. Codec ID                                 : A_AAC-2
  61. Duration                                 : 2 h 14 min
  62. Bit rate                                 : 192 kb/s
  63. Channel(s)                               : 6 channels
  64. Channel layout                           : C L R Ls Rs LFE
  65. Sampling rate                            : 48.0 kHz
  66. Frame rate                               : 23.438 FPS (2048 SPF)
  67. Compression mode                         : Lossy
  68. Stream size                              : 184 MiB (13%)
  69. Title                                    : English
  70. Language                                 : English
  71. Default                                  : No
  72. Forced                                   : No
  73.  
  74. Text
  75. ID                                       : 4
  76. Format                                   : PGS
  77. Codec ID                                 : S_HDMV/PGS
  78. Codec ID/Info                            : Picture based subtitle format used on BDs/HD-DVDs
  79. Duration                                 : 2 h 13 min
  80. Bit rate                                 : 33.1 kb/s
  81. Frame rate                               : 0.454 FPS
  82. Count of elements                        : 3648
  83. Stream size                              : 31.8 MiB (2%)
  84. Title                                    : English [PGS]
  85. Language                                 : English
  86. Default                                  : Yes
  87. Forced                                   : No
  88.  
  89. Menu
  90. 00:00:00.000                             : en:00:00:00.000
  91. 00:09:08.506                             : en:00:09:08.506
  92. 00:20:22.972                             : en:00:20:22.972
  93. 00:31:14.706                             : en:00:31:14.706
  94. 00:41:04.879                             : en:00:41:04.879
  95. 00:52:21.805                             : en:00:52:21.805
  96. 01:04:48.843                             : en:01:04:48.843
  97. 01:21:12.743                             : en:01:21:12.743
  98. 01:32:11.943                             : en:01:32:11.943
  99. 01:42:57.671                             : en:01:42:57.671
  100. 01:50:58.652                             : en:01:50:58.652
  101. 02:04:04.812                             : en:02:04:04.812