The text below is selected, press Ctrl+C to copy to your clipboard. (⌘+C on Mac) No line numbers will be copied.
Brazen (2022) 1080p 10bit

15th January 2022 05:47:13 AM | Views: 6
  1. Format                                   : Matroska
  2. Format version                           : Version 4
  3. File size                                : 2.09 GiB
  4. Duration                                 : 1 h 36 min
  5. Overall bit rate                         : 3 113 kb/s
  6. Movie name                               : Brazen (2022) 1080p WEB-DL x265 10bit HEVC Dual Audio [Hindi DDP5.1 + English DDP5.1 Atmos] ESub 2.09GB [www.MoviezAddiction.art]
  7. Encoded date                             : UTC 2022-01-15 04:42:54
  8. Writing application                      : mkvmerge v47.0.0 ('Black Flag') 64-bit
  9. Writing library                          : libebml v1.3.10 + libmatroska v1.5.2
  10.  
  11. Video
  12. ID                                       : 1
  13. Format                                   : HEVC
  14. Format/Info                              : High Efficiency Video Coding
  15. Format profile                           : Main [email protected]@Main
  16. Codec ID                                 : V_MPEGH/ISO/HEVC
  17. Duration                                 : 1 h 36 min
  18. Bit rate                                 : 1 702 kb/s
  19. Width                                    : 1 920 pixels
  20. Height                                   : 804 pixels
  21. Display aspect ratio                     : 2.40:1
  22. Frame rate mode                          : Variable
  23. Frame rate                               : 24.000 FPS
  24. Color space                              : YUV
  25. Chroma subsampling                       : 4:2:0
  26. Bit depth                                : 10 bits
  27. Bits/(Pixel*Frame)                       : 0.046
  28. Stream size                              : 1.14 GiB (55%)
  29. Title                                    : [www.MoviezAddiction.art]
  30. Default                                  : Yes
  31. Forced                                   : No
  32.  
  33. Audio #1
  34. ID                                       : 2
  35. Format                                   : E-AC-3
  36. Format/Info                              : Enhanced AC-3
  37. Commercial name                          : Dolby Digital Plus
  38. Codec ID                                 : A_EAC3
  39. Duration                                 : 1 h 36 min
  40. Bit rate mode                            : Constant
  41. Bit rate                                 : 640 kb/s
  42. Channel(s)                               : 6 channels
  43. Channel layout                           : L R C LFE Ls Rs
  44. Sampling rate                            : 48.0 kHz
  45. Frame rate                               : 31.250 FPS (1536 SPF)
  46. Compression mode                         : Lossy
  47. Stream size                              : 441 MiB (21%)
  48. Title                                    : [www.MoviezAddiction.art] - Hindi
  49. Language                                 : Hindi
  50. Service kind                             : Complete Main
  51. Default                                  : Yes
  52. Forced                                   : No
  53.  
  54. Audio #2
  55. ID                                       : 3
  56. Format                                   : E-AC-3 JOC
  57. Format/Info                              : Enhanced AC-3 with Joint Object Coding
  58. Commercial name                          : Dolby Digital Plus with Dolby Atmos
  59. Codec ID                                 : A_EAC3
  60. Duration                                 : 1 h 36 min
  61. Bit rate mode                            : Constant
  62. Bit rate                                 : 768 kb/s
  63. Channel(s)                               : 6 channels
  64. Channel layout                           : L R C LFE Ls Rs
  65. Sampling rate                            : 48.0 kHz
  66. Frame rate                               : 31.250 FPS (1536 SPF)
  67. Compression mode                         : Lossy
  68. Stream size                              : 529 MiB (25%)
  69. Title                                    : [www.MoviezAddiction.art] - English
  70. Language                                 : English
  71. Service kind                             : Complete Main
  72. Default                                  : No
  73. Forced                                   : No
  74. Complexity index                         : 16
  75. Number of dynamic objects                : 15
  76. Bed channel count                        : 1 channel
  77. Bed channel configuration                : LFE
  78.  
  79. Text
  80. ID                                       : 4
  81. Format                                   : UTF-8
  82. Codec ID                                 : S_TEXT/UTF8
  83. Codec ID/Info                            : UTF-8 Plain Text
  84. Duration                                 : 1 h 31 min
  85. Bit rate                                 : 86 b/s
  86. Count of elements                        : 1303
  87. Stream size                              : 57.6 KiB (0%)
  88. Title                                    : [www.MoviezAddiction.art] - English [SRT]
  89. Language                                 : English
  90. Default                                  : Yes
  91. Forced                                   : No