The text below is selected, press Ctrl+C to copy to your clipboard. (⌘+C on Mac) No line numbers will be copied.
Where the Crawdads Sing (2022)...

21st January 2023 06:28:48 AM | Views: 12
  1. Format                                   : Matroska
  2. Format version                           : Version 4
  3. File size                                : 3.99 GiB
  4. Duration                                 : 2 h 5 min
  5. Overall bit rate                         : 4 549 kb/s
  6. Movie name                               : Where the Crawdads Sing (2022) 1080p BluRay x265 10bit HEVC Dual Audio [Hindi DDP5.1 + English DTS 5.1] ESub 3.98GB [MoviezAddiction]
  7. Encoded date                             : UTC 2023-01-20 14:17:31
  8. Writing application                      : mkvmerge v72.0.0 ('Minuano (Six-eight)') 64-bit
  9. Writing library                          : libebml v1.4.4 + libmatroska v1.7.1
  10.  
  11. Video
  12. ID                                       : 1
  13. Format                                   : HEVC
  14. Format/Info                              : High Efficiency Video Coding
  15. Format profile                           : Main [email protected]@Main
  16. Codec ID                                 : V_MPEGH/ISO/HEVC
  17. Duration                                 : 2 h 5 min
  18. Bit rate                                 : 2 368 kb/s
  19. Width                                    : 1 920 pixels
  20. Height                                   : 808 pixels
  21. Display aspect ratio                     : 2.40:1
  22. Frame rate mode                          : Constant
  23. Frame rate                               : 23.976 (24000/1001) FPS
  24. Color space                              : YUV
  25. Chroma subsampling                       : 4:2:0
  26. Bit depth                                : 10 bits
  27. Bits/(Pixel*Frame)                       : 0.064
  28. Stream size                              : 2.07 GiB (52%)
  29. Default                                  : Yes
  30. Forced                                   : No
  31.  
  32. Audio #1
  33. ID                                       : 2
  34. Format                                   : E-AC-3
  35. Format/Info                              : Enhanced AC-3
  36. Commercial name                          : Dolby Digital Plus
  37. Codec ID                                 : A_EAC3
  38. Duration                                 : 2 h 5 min
  39. Bit rate mode                            : Constant
  40. Bit rate                                 : 640 kb/s
  41. Channel(s)                               : 6 channels
  42. Channel layout                           : L R C LFE Ls Rs
  43. Sampling rate                            : 48.0 kHz
  44. Frame rate                               : 31.250 FPS (1536 SPF)
  45. Compression mode                         : Lossy
  46. Delay relative to video                  : 1 s 50 ms
  47. Stream size                              : 574 MiB (14%)
  48. Title                                    : Hindi
  49. Language                                 : Hindi
  50. Service kind                             : Complete Main
  51. Default                                  : Yes
  52. Forced                                   : No
  53.  
  54. Audio #2
  55. ID                                       : 3
  56. Format                                   : DTS
  57. Format/Info                              : Digital Theater Systems
  58. Codec ID                                 : A_DTS
  59. Duration                                 : 2 h 5 min
  60. Bit rate mode                            : Constant
  61. Bit rate                                 : 1 509 kb/s
  62. Channel(s)                               : 6 channels
  63. Channel layout                           : C L R Ls Rs LFE
  64. Sampling rate                            : 48.0 kHz
  65. Frame rate                               : 93.750 FPS (512 SPF)
  66. Bit depth                                : 24 bits
  67. Compression mode                         : Lossy
  68. Stream size                              : 1.32 GiB (33%)
  69. Title                                    : English
  70. Language                                 : English
  71. Default                                  : No
  72. Forced                                   : No
  73.  
  74. Text
  75. ID                                       : 4
  76. ID in the original source medium         : 4609 (0x1201)
  77. Format                                   : PGS
  78. Codec ID                                 : S_HDMV/PGS
  79. Codec ID/Info                            : Picture based subtitle format used on BDs/HD-DVDs
  80. Duration                                 : 1 h 59 min
  81. Bit rate                                 : 31.1 kb/s
  82. Frame rate                               : 0.359 FPS
  83. Count of elements                        : 2576
  84. Stream size                              : 26.7 MiB (1%)
  85. Title                                    : English [PGS]
  86. Language                                 : English
  87. Default                                  : Yes
  88. Forced                                   : No
  89. Original source medium                   : Blu-ray
  90.  
  91. Menu
  92. 00:00:00.000                             : en:Chapter 01
  93. 00:08:45.066                             : en:Chapter 02
  94. 00:15:25.966                             : en:Chapter 03
  95. 00:22:13.957                             : en:Chapter 04
  96. 00:29:12.500                             : en:Chapter 05
  97. 00:36:34.150                             : en:Chapter 06
  98. 00:46:39.338                             : en:Chapter 07
  99. 00:54:06.660                             : en:Chapter 08
  100. 01:00:51.230                             : en:Chapter 09
  101. 01:06:52.967                             : en:Chapter 10
  102. 01:15:50.295                             : en:Chapter 11
  103. 01:22:18.767                             : en:Chapter 12
  104. 01:29:23.107                             : en:Chapter 13
  105. 01:36:22.777                             : en:Chapter 14
  106. 01:43:36.335                             : en:Chapter 15
  107. 01:53:23.713                             : en:Chapter 16