The text below is selected, press Ctrl+C to copy to your clipboard. (⌘+C on Mac) No line numbers will be copied.
83 (2021) 720p

25th December 2021 06:25:24 AM | Views: 42
  1. Format                                   : Matroska
  2. Format version                           : Version 4
  3. File size                                : 1.38 GiB
  4. Duration                                 : 2 h 41 min
  5. Overall bit rate                         : 1 230 kb/s
  6. Movie name                               : 83 (2021) 720p PreDVD x264 Hindi DD2.0 1.38GB [www.BollyMovies.info]
  7. Encoded date                             : UTC 2021-12-25 04:55:54
  8. Writing application                      : mkvmerge v47.0.0 ('Black Flag') 64-bit
  9. Writing library                          : libebml v1.3.10 + libmatroska v1.5.2
  10.  
  11. Video
  12. ID                                       : 1
  13. Format                                   : AVC
  14. Format/Info                              : Advanced Video Codec
  15. Format profile                           : [email protected]
  16. Format settings                          : CABAC / 4 Ref Frames
  17. Format settings, CABAC                   : Yes
  18. Format settings, Reference frames        : 4 frames
  19. Codec ID                                 : V_MPEG4/ISO/AVC
  20. Duration                                 : 2 h 41 min
  21. Bit rate                                 : 1 099 kb/s
  22. Width                                    : 1 280 pixels
  23. Height                                   : 512 pixels
  24. Display aspect ratio                     : 2.500
  25. Frame rate mode                          : Variable
  26. Frame rate                               : 23.976 (24000/1001) FPS
  27. Color space                              : YUV
  28. Chroma subsampling                       : 4:2:0
  29. Bit depth                                : 8 bits
  30. Scan type                                : Progressive
  31. Bits/(Pixel*Frame)                       : 0.070
  32. Stream size                              : 1.24 GiB (89%)
  33. Title                                    : [www.BollyMovies.info]
  34. Default                                  : Yes
  35. Forced                                   : No
  36.  
  37. Audio
  38. ID                                       : 2
  39. Format                                   : AAC LC
  40. Format/Info                              : Advanced Audio Codec Low Complexity
  41. Codec ID                                 : A_AAC-2
  42. Duration                                 : 2 h 41 min
  43. Bit rate                                 : 128 kb/s
  44. Channel(s)                               : 2 channels
  45. Channel layout                           : L R
  46. Sampling rate                            : 48.0 kHz
  47. Frame rate                               : 46.875 FPS (1024 SPF)
  48. Compression mode                         : Lossy
  49. Stream size                              : 148 MiB (10%)
  50. Title                                    : [www.BollyMovies.info] - Hindi
  51. Language                                 : Hindi
  52. Default                                  : Yes
  53. Forced                                   : No