The text below is selected, press Ctrl+C to copy to your clipboard. (⌘+C on Mac) No line numbers will be copied.
Where the Crawdads Sing (2022)...

21st January 2023 06:27:42 AM | Views: 6
  1. Format                                   : Matroska
  2. Format version                           : Version 4
  3. File size                                : 24.0 GiB
  4. Duration                                 : 2 h 5 min
  5. Overall bit rate mode                    : Variable
  6. Overall bit rate                         : 27.4 Mb/s
  7. Movie name                               : Where the Crawdads Sing (2022) 2160p iTunes UHD WEB-DL x265 10bit DV HEVC Dual Audio [Hindi DDP5.1 + English DTS-HD MA 5.1] ESub 24.0GB [MoviezAddiction]
  8. Encoded date                             : UTC 2023-01-21 02:07:07
  9. Writing application                      : mkvmerge v72.0.0 ('Minuano (Six-eight)') 64-bit
  10. Writing library                          : libebml v1.4.4 + libmatroska v1.7.1
  11.  
  12. Video
  13. ID                                       : 1
  14. Format                                   : HEVC
  15. Format/Info                              : High Efficiency Video Coding
  16. Format profile                           : Main [email protected]@High
  17. HDR format                               : Dolby Vision, Version 1.0, dvhe.05.06, BL+RPU
  18. Codec ID                                 : V_MPEGH/ISO/HEVC
  19. Duration                                 : 2 h 5 min
  20. Bit rate                                 : 24.6 Mb/s
  21. Width                                    : 3 840 pixels
  22. Height                                   : 1 600 pixels
  23. Display aspect ratio                     : 2.40:1
  24. Frame rate mode                          : Constant
  25. Frame rate                               : 23.976 (24000/1001) FPS
  26. Color space                              : YUV
  27. Chroma subsampling                       : 4:2:0
  28. Bit depth                                : 10 bits
  29. Bits/(Pixel*Frame)                       : 0.167
  30. Stream size                              : 21.6 GiB (90%)
  31. Default                                  : Yes
  32. Forced                                   : No
  33.  
  34. Audio #1
  35. ID                                       : 2
  36. Format                                   : E-AC-3
  37. Format/Info                              : Enhanced AC-3
  38. Commercial name                          : Dolby Digital Plus
  39. Codec ID                                 : A_EAC3
  40. Duration                                 : 2 h 5 min
  41. Bit rate mode                            : Constant
  42. Bit rate                                 : 640 kb/s
  43. Channel(s)                               : 6 channels
  44. Channel layout                           : L R C LFE Ls Rs
  45. Sampling rate                            : 48.0 kHz
  46. Frame rate                               : 31.250 FPS (1536 SPF)
  47. Compression mode                         : Lossy
  48. Delay relative to video                  : 24 ms
  49. Stream size                              : 574 MiB (2%)
  50. Title                                    : Hindi
  51. Language                                 : Hindi
  52. Service kind                             : Complete Main
  53. Default                                  : Yes
  54. Forced                                   : No
  55.  
  56. Audio #2
  57. ID                                       : 3
  58. ID in the original source medium         : 4352 (0x1100)
  59. Format                                   : DTS XLL
  60. Format/Info                              : Digital Theater Systems
  61. Commercial name                          : DTS-HD Master Audio
  62. Codec ID                                 : A_DTS
  63. Duration                                 : 2 h 5 min
  64. Bit rate mode                            : Variable
  65. Bit rate                                 : 2 126 kb/s
  66. Channel(s)                               : 6 channels
  67. Channel layout                           : C L R Ls Rs LFE
  68. Sampling rate                            : 48.0 kHz
  69. Frame rate                               : 93.750 FPS (512 SPF)
  70. Bit depth                                : 16 bits
  71. Compression mode                         : Lossless
  72. Delay relative to video                  : -1 s 26 ms
  73. Stream size                              : 1.86 GiB (8%)
  74. Title                                    : English
  75. Language                                 : English
  76. Default                                  : No
  77. Forced                                   : No
  78. Original source medium                   : Blu-ray
  79.  
  80. Text
  81. ID                                       : 4
  82. Format                                   : PGS
  83. Codec ID                                 : S_HDMV/PGS
  84. Codec ID/Info                            : Picture based subtitle format used on BDs/HD-DVDs
  85. Duration                                 : 1 h 59 min
  86. Bit rate                                 : 31.1 kb/s
  87. Frame rate                               : 0.359 FPS
  88. Count of elements                        : 2576
  89. Stream size                              : 26.7 MiB (0%)
  90. Title                                    : English [PGS]
  91. Language                                 : English
  92. Default                                  : Yes
  93. Forced                                   : No
  94.  
  95. Menu
  96. 00:00:01.026                             : en:Chapter 1
  97. 00:08:46.217                             : en:Chapter 2
  98. 00:15:26.993                             : en:Chapter 3
  99. 00:22:14.984                             : en:Chapter 4
  100. 00:29:13.860                             : en:Chapter 5
  101. 00:36:34.342                             : en:Chapter 6
  102. 00:46:40.364                             : en:Chapter 7
  103. 00:54:07.686                             : en:Chapter 8
  104. 01:00:52.257                             : en:Chapter 9
  105. 01:06:54.327                             : en:Chapter 10
  106. 01:15:51.489                             : en:Chapter 11
  107. 01:22:20.127                             : en:Chapter 12
  108. 01:29:24.467                             : en:Chapter 13
  109. 01:36:24.178                             : en:Chapter 14
  110. 01:43:37.361                             : en:Chapter 15
  111. 01:53:25.115                             : en:Chapter 16
  112. 02:01:00.653                             : en:Chapter 17