The text below is selected, press Ctrl+C to copy to your clipboard. (⌘+C on Mac) No line numbers will be copied.
The Croods (2013) 2160p UHD...

23rd November 2022 04:22:44 AM | Views: 18
  1. Format                                   : Matroska
  2. Format version                           : Version 4
  3. File size                                : 67.0 GiB
  4. Duration                                 : 1 h 38 min
  5. Overall bit rate mode                    : Variable
  6. Overall bit rate                         : 97.3 Mb/s
  7. Movie name                               : The Croods (2013) 2160p UHD BluRay REMUX x265 10bit HDR HEVC Dual Audio [Hindi DTS 5.1 + English DTS-X 7.1] ESub 67.0GB [MoviezAddiction.life]
  8. Encoded date                             : UTC 2022-11-22 07:49:04
  9. Writing application                      : mkvmerge v72.0.0 ('Minuano (Six-eight)') 64-bit
  10. Writing library                          : libebml v1.4.4 + libmatroska v1.7.1
  11.  
  12. Video
  13. ID                                       : 1
  14. Format                                   : HEVC
  15. Format/Info                              : High Efficiency Video Coding
  16. Format profile                           : Main [email protected]@High
  17. HDR format                               : SMPTE ST 2086, HDR10 compatible
  18. Codec ID                                 : V_MPEGH/ISO/HEVC
  19. Duration                                 : 1 h 38 min
  20. Bit rate                                 : 92.9 Mb/s
  21. Width                                    : 3 840 pixels
  22. Height                                   : 2 160 pixels
  23. Display aspect ratio                     : 16:9
  24. Frame rate mode                          : Constant
  25. Frame rate                               : 23.976 (24000/1001) FPS
  26. Color space                              : YUV
  27. Chroma subsampling                       : 4:2:0 (Type 2)
  28. Bit depth                                : 10 bits
  29. Bits/(Pixel*Frame)                       : 0.467
  30. Stream size                              : 64.0 GiB (96%)
  31. Writing library                          : ATEME Titan File 3.9.6 (4.9.6.2)        
  32. Default                                  : Yes
  33. Forced                                   : No
  34. Color range                              : Limited
  35. Color primaries                          : BT.2020
  36. Transfer characteristics                 : PQ
  37. Matrix coefficients                      : BT.2020 non-constant
  38. Mastering display color primaries        : Display P3
  39. Mastering display luminance              : min: 0.0050 cd/m2, max: 1000 cd/m2
  40. Maximum Content Light Level              : 941 cd/m2
  41. Maximum Frame-Average Light Level        : 177 cd/m2
  42.  
  43. Audio #1
  44. ID                                       : 2
  45. Format                                   : DTS
  46. Format/Info                              : Digital Theater Systems
  47. Codec ID                                 : A_DTS
  48. Duration                                 : 1 h 38 min
  49. Bit rate mode                            : Constant
  50. Bit rate                                 : 768 kb/s
  51. Channel(s)                               : 6 channels
  52. Channel layout                           : C L R Ls Rs LFE
  53. Sampling rate                            : 48.0 kHz
  54. Frame rate                               : 93.750 FPS (512 SPF)
  55. Bit depth                                : 24 bits
  56. Compression mode                         : Lossy
  57. Stream size                              : 542 MiB (1%)
  58. Title                                    : Hindi
  59. Language                                 : Hindi
  60. Default                                  : Yes
  61. Forced                                   : No
  62.  
  63. Audio #2
  64. ID                                       : 3
  65. Format                                   : DTS XLL X
  66. Format/Info                              : Digital Theater Systems
  67. Commercial name                          : DTS-HD Master Audio
  68. Codec ID                                 : A_DTS
  69. Duration                                 : 1 h 38 min
  70. Bit rate mode                            : Variable
  71. Bit rate                                 : 3 579 kb/s
  72. Channel(s)                               : 8 channels
  73. Channel(s)_Original                      : Object Based
  74. ChannelLayout_Original                   : Object Based
  75. Sampling rate                            : 48.0 kHz
  76. Frame rate                               : 93.750 FPS (512 SPF)
  77. Bit depth                                : 24 bits
  78. Stream size                              : 2.46 GiB (4%)
  79. Title                                    : English
  80. Language                                 : English
  81. Default                                  : No
  82. Forced                                   : No
  83.  
  84. Text
  85. ID                                       : 4
  86. Format                                   : PGS
  87. Codec ID                                 : S_HDMV/PGS
  88. Codec ID/Info                            : Picture based subtitle format used on BDs/HD-DVDs
  89. Duration                                 : 1 h 28 min
  90. Bit rate                                 : 24.0 kb/s
  91. Frame rate                               : 0.383 FPS
  92. Count of elements                        : 2042
  93. Stream size                              : 15.3 MiB (0%)
  94. Title                                    : English [PGS]
  95. Language                                 : English
  96. Default                                  : Yes
  97. Forced                                   : No
  98.  
  99. Menu
  100. 00:00:00.000                             : en:Chapter 1
  101. 00:02:36.656                             : en:Chapter 2
  102. 00:04:53.418                             : en:Chapter 3
  103. 00:09:02.917                             : en:Chapter 4
  104. 00:12:16.027                             : en:Chapter 5
  105. 00:14:06.471                             : en:Chapter 6
  106. 00:18:34.697                             : en:Chapter 7
  107. 00:21:58.651                             : en:Chapter 8
  108. 00:23:26.405                             : en:Chapter 9
  109. 00:26:51.443                             : en:Chapter 10
  110. 00:28:38.800                             : en:Chapter 11
  111. 00:30:27.325                             : en:Chapter 12
  112. 00:32:50.302                             : en:Chapter 13
  113. 00:36:05.038                             : en:Chapter 14
  114. 00:38:35.230                             : en:Chapter 15
  115. 00:41:36.202                             : en:Chapter 16
  116. 00:44:40.511                             : en:Chapter 17
  117. 00:48:04.298                             : en:Chapter 18
  118. 00:52:12.629                             : en:Chapter 19
  119. 00:55:19.149                             : en:Chapter 20
  120. 01:00:16.446                             : en:Chapter 21
  121. 01:03:59.753                             : en:Chapter 22
  122. 01:05:50.405                             : en:Chapter 23
  123. 01:08:45.705                             : en:Chapter 24
  124. 01:10:48.953                             : en:Chapter 25
  125. 01:12:38.813                             : en:Chapter 26
  126. 01:14:03.314                             : en:Chapter 27
  127. 01:19:50.244                             : en:Chapter 28
  128. 01:23:11.528                             : en:Chapter 29
  129. 01:25:18.405                             : en:Chapter 30
  130. 01:28:05.989                             : en:Chapter 31
  131. 01:30:03.898                             : en:Chapter 32