The text below is selected, press Ctrl+C to copy to your clipboard. (⌘+C on Mac) No line numbers will be copied.
Snatch (2000) 720p BluRay x264...

20th January 2023 05:35:08 PM | Views: 5
  1. Format                                   : Matroska
  2. Format version                           : Version 4
  3. File size                                : 1.11 GiB
  4. Duration                                 : 1 h 42 min
  5. Overall bit rate                         : 1 552 kb/s
  6. Movie name                               : Snatch (2000) 720p BluRay x264 Dual Audio [Hindi DTH DD2.0 + English BD5.1] ESub 1.11GB [MoviezAddiction]
  7. Encoded date                             : UTC 2023-01-15 00:43:51
  8. Writing application                      : mkvmerge v72.0.0 ('Minuano (Six-eight)') 64-bit
  9. Writing library                          : libebml v1.4.4 + libmatroska v1.7.1
  10.  
  11. Video
  12. ID                                       : 1
  13. Format                                   : AVC
  14. Format/Info                              : Advanced Video Codec
  15. Format profile                           : [email protected]
  16. Format settings                          : CABAC / 4 Ref Frames
  17. Format settings, CABAC                   : Yes
  18. Format settings, Reference frames        : 4 frames
  19. Codec ID                                 : V_MPEG4/ISO/AVC
  20. Duration                                 : 1 h 42 min
  21. Bit rate                                 : 1 099 kb/s
  22. Width                                    : 1 280 pixels
  23. Height                                   : 694 pixels
  24. Display aspect ratio                     : 1.85:1
  25. Frame rate mode                          : Variable
  26. Frame rate                               : 23.976 (24000/1001) FPS
  27. Color space                              : YUV
  28. Chroma subsampling                       : 4:2:0
  29. Bit depth                                : 8 bits
  30. Scan type                                : Progressive
  31. Bits/(Pixel*Frame)                       : 0.052
  32. Stream size                              : 807 MiB (71%)
  33. Default                                  : Yes
  34. Forced                                   : No
  35. Color range                              : Limited
  36. Color primaries                          : BT.709
  37. Transfer characteristics                 : BT.709
  38. Matrix coefficients                      : BT.709
  39.  
  40. Audio #1
  41. ID                                       : 2
  42. Format                                   : AC-3
  43. Format/Info                              : Audio Coding 3
  44. Commercial name                          : Dolby Digital
  45. Codec ID                                 : A_AC3
  46. Duration                                 : 1 h 42 min
  47. Bit rate mode                            : Constant
  48. Bit rate                                 : 224 kb/s
  49. Channel(s)                               : 2 channels
  50. Channel layout                           : L R
  51. Sampling rate                            : 48.0 kHz
  52. Frame rate                               : 31.250 FPS (1536 SPF)
  53. Compression mode                         : Lossy
  54. Delay relative to video                  : -41 ms
  55. Stream size                              : 165 MiB (14%)
  56. Title                                    : Hindi
  57. Language                                 : Hindi
  58. Service kind                             : Complete Main
  59. Default                                  : Yes
  60. Forced                                   : No
  61.  
  62. Audio #2
  63. ID                                       : 3
  64. Format                                   : AAC LC SBR
  65. Format/Info                              : Advanced Audio Codec Low Complexity with Spectral Band Replication
  66. Commercial name                          : HE-AAC
  67. Format settings                          : Explicit
  68. Codec ID                                 : A_AAC-2
  69. Duration                                 : 1 h 42 min
  70. Bit rate                                 : 192 kb/s
  71. Channel(s)                               : 6 channels
  72. Channel layout                           : C L R Ls Rs LFE
  73. Sampling rate                            : 48.0 kHz
  74. Frame rate                               : 23.438 FPS (2048 SPF)
  75. Compression mode                         : Lossy
  76. Delay relative to video                  : 4 s 200 ms
  77. Stream size                              : 140 MiB (12%)
  78. Title                                    : English
  79. Language                                 : English
  80. Default                                  : No
  81. Forced                                   : No
  82.  
  83. Text
  84. ID                                       : 4
  85. Format                                   : PGS
  86. Codec ID                                 : S_HDMV/PGS
  87. Codec ID/Info                            : Picture based subtitle format used on BDs/HD-DVDs
  88. Duration                                 : 1 h 38 min
  89. Bit rate                                 : 37.8 kb/s
  90. Count of elements                        : 2694
  91. Stream size                              : 26.7 MiB (2%)
  92. Title                                    : English [PGS]
  93. Language                                 : English
  94. Default                                  : Yes
  95. Forced                                   : No
  96.  
  97. Menu
  98. 00:00:00.041                             : en:Chapter 01
  99. 00:06:58.208                             : en:Chapter 02
  100. 00:11:53.670                             : en:Chapter 03
  101. 00:16:31.865                             : en:Chapter 04
  102. 00:22:48.032                             : en:Chapter 05
  103. 00:30:03.342                             : en:Chapter 06
  104. 00:36:28.060                             : en:Chapter 07
  105. 00:41:39.538                             : en:Chapter 08
  106. 00:48:16.517                             : en:Chapter 09
  107. 00:53:13.731                             : en:Chapter 10
  108. 00:59:06.417                             : en:Chapter 11
  109. 01:07:47.229                             : en:Chapter 12
  110. 01:13:24.649                             : en:Chapter 13
  111. 01:19:09.660                             : en:Chapter 14
  112. 01:28:12.703                             : en:Chapter 15
  113. 01:33:58.173                             : en:Chapter 16