The text below is selected, press Ctrl+C to copy to your clipboard. (⌘+C on Mac) No line numbers will be copied.
Last Action Hero (1993) 2160p...

12th November 2022 04:50:30 PM | Views: 16
  1. Format                                   : Matroska
  2. Format version                           : Version 4
  3. File size                                : 58.1 GiB
  4. Duration                                 : 2 h 10 min
  5. Overall bit rate mode                    : Variable
  6. Overall bit rate                         : 63.5 Mb/s
  7. Movie name                               : Last Action Hero (1993) 2160p UHD BluRay REMUX x265 10bit HDR HEVC Dual Audio [Hindi TV-DL DDP2.0 + English DTS-HD MA 7.1] ESub 58.1GB [MoviezAddiction.life]
  8. Encoded date                             : UTC 2022-11-12 12:11:15
  9. Writing application                      : mkvmerge v71.1.0 ('Fortitude') 64-bit
  10. Writing library                          : libebml v1.4.4 + libmatroska v1.7.1
  11.  
  12. Video
  13. ID                                       : 1
  14. ID in the original source medium         : 4113 (0x1011)
  15. Format                                   : HEVC
  16. Format/Info                              : High Efficiency Video Coding
  17. Format profile                           : Main [email protected]@High
  18. HDR format                               : SMPTE ST 2086, HDR10 compatible
  19. Codec ID                                 : V_MPEGH/ISO/HEVC
  20. Duration                                 : 2 h 10 min
  21. Bit rate                                 : 58.9 Mb/s
  22. Width                                    : 3 840 pixels
  23. Height                                   : 2 160 pixels
  24. Display aspect ratio                     : 16:9
  25. Frame rate mode                          : Constant
  26. Frame rate                               : 23.976 (24000/1001) FPS
  27. Color space                              : YUV
  28. Chroma subsampling                       : 4:2:0 (Type 2)
  29. Bit depth                                : 10 bits
  30. Bits/(Pixel*Frame)                       : 0.296
  31. Stream size                              : 53.9 GiB (93%)
  32. Default                                  : Yes
  33. Forced                                   : No
  34. Color range                              : Limited
  35. Color primaries                          : BT.2020
  36. Transfer characteristics                 : PQ
  37. Matrix coefficients                      : BT.2020 non-constant
  38. Mastering display color primaries        : Display P3
  39. Mastering display luminance              : min: 0.0050 cd/m2, max: 4000 cd/m2
  40. Maximum Content Light Level              : 3991 cd/m2
  41. Maximum Frame-Average Light Level        : 1352 cd/m2
  42. Original source medium                   : Blu-ray
  43.  
  44. Audio #1
  45. ID                                       : 2
  46. Format                                   : E-AC-3
  47. Format/Info                              : Enhanced AC-3
  48. Commercial name                          : Dolby Digital Plus
  49. Codec ID                                 : A_EAC3
  50. Duration                                 : 2 h 10 min
  51. Bit rate mode                            : Constant
  52. Bit rate                                 : 224 kb/s
  53. Channel(s)                               : 2 channels
  54. Channel layout                           : L R
  55. Sampling rate                            : 48.0 kHz
  56. Frame rate                               : 31.250 FPS (1536 SPF)
  57. Compression mode                         : Lossy
  58. Delay relative to video                  : -600 ms
  59. Stream size                              : 210 MiB (0%)
  60. Title                                    : Hindi
  61. Language                                 : Hindi
  62. Service kind                             : Complete Main
  63. Default                                  : Yes
  64. Forced                                   : No
  65.  
  66. Audio #2
  67. ID                                       : 3
  68. Format                                   : DTS XLL
  69. Format/Info                              : Digital Theater Systems
  70. Commercial name                          : DTS-HD Master Audio
  71. Codec ID                                 : A_DTS
  72. Duration                                 : 2 h 10 min
  73. Bit rate mode                            : Variable
  74. Bit rate                                 : 4 336 kb/s
  75. Channel(s)                               : 8 channels
  76. Channel layout                           : C L R LFE Lb Rb Lss Rss
  77. Sampling rate                            : 48.0 kHz
  78. Frame rate                               : 93.750 FPS (512 SPF)
  79. Bit depth                                : 24 bits
  80. Compression mode                         : Lossless
  81. Stream size                              : 3.97 GiB (7%)
  82. Title                                    : English
  83. Language                                 : English
  84. Default                                  : No
  85. Forced                                   : No
  86.  
  87. Text
  88. ID                                       : 4
  89. ID in the original source medium         : 4769 (0x12A1)
  90. Format                                   : PGS
  91. Codec ID                                 : S_HDMV/PGS
  92. Codec ID/Info                            : Picture based subtitle format used on BDs/HD-DVDs
  93. Duration                                 : 2 h 2 min
  94. Bit rate                                 : 33.3 kb/s
  95. Frame rate                               : 0.362 FPS
  96. Count of elements                        : 2658
  97. Stream size                              : 29.2 MiB (0%)
  98. Title                                    : English [PGS]
  99. Language                                 : English
  100. Default                                  : Yes
  101. Forced                                   : No
  102. Original source medium                   : Blu-ray
  103.  
  104. Menu
  105. 00:00:00.600                             : en:Chapter 01
  106. 00:08:33.529                             : en:Chapter 02
  107. 00:19:24.262                             : en:Chapter 03
  108. 00:30:33.722                             : en:Chapter 04
  109. 00:37:02.528                             : en:Chapter 05
  110. 00:46:53.118                             : en:Chapter 06
  111. 00:51:52.417                             : en:Chapter 07
  112. 00:59:47.641                             : en:Chapter 08
  113. 01:07:06.622                             : en:Chapter 09
  114. 01:18:16.416                             : en:Chapter 10
  115. 01:24:16.484                             : en:Chapter 11
  116. 01:32:16.755                             : en:Chapter 12
  117. 01:45:29.505                             : en:Chapter 13
  118. 01:50:06.282                             : en:Chapter 14
  119. 01:58:51.223                             : en:Chapter 15
  120. 02:02:04.583                             : en:Chapter 16