The text below is selected, press Ctrl+C to copy to your clipboard. (⌘+C on Mac) No line numbers will be copied.
Fast & Furious Spy Racers...

20th December 2021 08:45:48 AM | Views: 59
  1. Format                                   : Matroska
  2. Format version                           : Version 4
  3. File size                                : 756 MiB
  4. Duration                                 : 23 min 53 s
  5. Overall bit rate mode                    : Variable
  6. Overall bit rate                         : 4 425 kb/s
  7. Movie name                               : Fast & Furious Spy Racers - Homecoming (2021) S06E01 [Incineration Day] 1080p WEB-DL x264 Dual Audio [Hindi DDP5.1 + English DDP5.1] ESub 755MB [www.MoviezAddiction.cc]
  8. Encoded date                             : UTC 2021-12-20 04:32:56
  9. Writing application                      : mkvmerge v47.0.0 ('Black Flag') 64-bit
  10. Writing library                          : libebml v1.3.10 + libmatroska v1.5.2
  11.  
  12. Video
  13. ID                                       : 1
  14. Format                                   : AVC
  15. Format/Info                              : Advanced Video Codec
  16. Format profile                           : [email protected]
  17. Format settings                          : CABAC / 3 Ref Frames
  18. Format settings, CABAC                   : Yes
  19. Format settings, Reference frames        : 3 frames
  20. Codec ID                                 : V_MPEG4/ISO/AVC
  21. Duration                                 : 23 min 52 s
  22. Bit rate mode                            : Variable
  23. Bit rate                                 : 3 143 kb/s
  24. Nominal bit rate                         : 4 020 kb/s
  25. Maximum bit rate                         : 6 030 kb/s
  26. Width                                    : 1 920 pixels
  27. Height                                   : 1 080 pixels
  28. Display aspect ratio                     : 16:9
  29. Frame rate mode                          : Constant
  30. Frame rate                               : 23.976 (24000/1001) FPS
  31. Color space                              : YUV
  32. Chroma subsampling                       : 4:2:0
  33. Bit depth                                : 8 bits
  34. Scan type                                : Progressive
  35. Bits/(Pixel*Frame)                       : 0.063
  36. Stream size                              : 537 MiB (71%)
  37. Title                                    : [www.MoviezAddiction.cc]
  38. Default                                  : Yes
  39. Forced                                   : No
  40.  
  41. Audio #1
  42. ID                                       : 2
  43. Format                                   : E-AC-3
  44. Format/Info                              : Enhanced AC-3
  45. Commercial name                          : Dolby Digital Plus
  46. Codec ID                                 : A_EAC3
  47. Duration                                 : 23 min 53 s
  48. Bit rate mode                            : Constant
  49. Bit rate                                 : 640 kb/s
  50. Channel(s)                               : 6 channels
  51. Channel layout                           : L R C LFE Ls Rs
  52. Sampling rate                            : 48.0 kHz
  53. Frame rate                               : 31.250 FPS (1536 SPF)
  54. Compression mode                         : Lossy
  55. Stream size                              : 109 MiB (14%)
  56. Title                                    : [www.MoviezAddiction.cc] - Hindi
  57. Language                                 : Hindi
  58. Service kind                             : Complete Main
  59. Default                                  : Yes
  60. Forced                                   : No
  61.  
  62. Audio #2
  63. ID                                       : 3
  64. Format                                   : E-AC-3
  65. Format/Info                              : Enhanced AC-3
  66. Commercial name                          : Dolby Digital Plus
  67. Codec ID                                 : A_EAC3
  68. Duration                                 : 23 min 53 s
  69. Bit rate mode                            : Constant
  70. Bit rate                                 : 640 kb/s
  71. Channel(s)                               : 6 channels
  72. Channel layout                           : L R C LFE Ls Rs
  73. Sampling rate                            : 48.0 kHz
  74. Frame rate                               : 31.250 FPS (1536 SPF)
  75. Compression mode                         : Lossy
  76. Stream size                              : 109 MiB (14%)
  77. Title                                    : [www.MoviezAddiction.cc] - English
  78. Language                                 : English
  79. Service kind                             : Complete Main
  80. Default                                  : No
  81. Forced                                   : No
  82.  
  83. Text
  84. ID                                       : 4
  85. Format                                   : UTF-8
  86. Codec ID                                 : S_TEXT/UTF8
  87. Codec ID/Info                            : UTF-8 Plain Text
  88. Duration                                 : 22 min 33 s
  89. Bit rate                                 : 93 b/s
  90. Count of elements                        : 447
  91. Stream size                              : 15.5 KiB (0%)
  92. Title                                    : [www.MoviezAddiction.cc] - English [SRT]
  93. Language                                 : English
  94. Default                                  : Yes
  95. Forced                                   : No