The text below is selected, press Ctrl+C to copy to your clipboard. (⌘+C on Mac) No line numbers will be copied.
211 (2018) 1080p 10bit

12th January 2022 02:31:17 AM | Views: 9
  1. Format                                   : Matroska
  2. Format version                           : Version 4
  3. File size                                : 2.27 GiB
  4. Duration                                 : 1 h 27 min
  5. Overall bit rate                         : 3 733 kb/s
  6. Movie name                               : 211 (2018) 1080p BluRay x265 10bit HEVC Dual Audio [Hindi DD2.0 + English BD5.1] ESub 2.27GB [www.MoviezAddiction.art]
  7. Encoded date                             : UTC 2022-01-12 01:10:27
  8. Writing application                      : mkvmerge v47.0.0 ('Black Flag') 64-bit
  9. Writing library                          : libebml v1.3.10 + libmatroska v1.5.2
  10.  
  11. Video
  12. ID                                       : 1
  13. Format                                   : HEVC
  14. Format/Info                              : High Efficiency Video Coding
  15. Format profile                           : Main [email protected]@Main
  16. Codec ID                                 : V_MPEGH/ISO/HEVC
  17. Duration                                 : 1 h 27 min
  18. Bit rate                                 : 2 605 kb/s
  19. Width                                    : 1 920 pixels
  20. Height                                   : 1 040 pixels
  21. Display aspect ratio                     : 1.85:1
  22. Frame rate mode                          : Constant
  23. Frame rate                               : 23.976 (24000/1001) FPS
  24. Color space                              : YUV
  25. Chroma subsampling                       : 4:2:0
  26. Bit depth                                : 10 bits
  27. Bits/(Pixel*Frame)                       : 0.054
  28. Stream size                              : 1.58 GiB (70%)
  29. Title                                    : [www.MoviezAddiction.art]
  30. Default                                  : Yes
  31. Forced                                   : No
  32.  
  33. Audio #1
  34. ID                                       : 2
  35. Format                                   : AC-3
  36. Format/Info                              : Audio Coding 3
  37. Commercial name                          : Dolby Digital
  38. Codec ID                                 : A_AC3
  39. Duration                                 : 1 h 27 min
  40. Bit rate mode                            : Constant
  41. Bit rate                                 : 448 kb/s
  42. Channel(s)                               : 2 channels
  43. Channel layout                           : L R
  44. Sampling rate                            : 48.0 kHz
  45. Frame rate                               : 31.250 FPS (1536 SPF)
  46. Compression mode                         : Lossy
  47. Delay relative to video                  : 15 ms
  48. Stream size                              : 279 MiB (12%)
  49. Title                                    : [www.MoviezAddiction.art] - Hindi
  50. Language                                 : Hindi
  51. Service kind                             : Complete Main
  52. Default                                  : Yes
  53. Forced                                   : No
  54.  
  55. Audio #2
  56. ID                                       : 3
  57. Format                                   : AC-3
  58. Format/Info                              : Audio Coding 3
  59. Commercial name                          : Dolby Digital
  60. Codec ID                                 : A_AC3
  61. Duration                                 : 1 h 27 min
  62. Bit rate mode                            : Constant
  63. Bit rate                                 : 640 kb/s
  64. Channel(s)                               : 6 channels
  65. Channel layout                           : L R C LFE Ls Rs
  66. Sampling rate                            : 48.0 kHz
  67. Frame rate                               : 31.250 FPS (1536 SPF)
  68. Compression mode                         : Lossy
  69. Stream size                              : 399 MiB (17%)
  70. Title                                    : [www.MoviezAddiction.art] - English
  71. Language                                 : English
  72. Service kind                             : Complete Main
  73. Default                                  : No
  74. Forced                                   : No
  75.  
  76. Text
  77. ID                                       : 4
  78. Format                                   : PGS
  79. Codec ID                                 : S_HDMV/PGS
  80. Codec ID/Info                            : Picture based subtitle format used on BDs/HD-DVDs
  81. Duration                                 : 1 h 21 min
  82. Bit rate                                 : 40.6 kb/s
  83. Count of elements                        : 2012
  84. Stream size                              : 23.7 MiB (1%)
  85. Title                                    : [www.MoviezAddiction.art] - English [PGS]
  86. Language                                 : English
  87. Default                                  : Yes
  88. Forced                                   : No
  89.  
  90. Menu
  91. 00:00:00.000                             : Chapter 01
  92. 00:05:50.725                             : Chapter 02
  93. 00:10:14.864                             : Chapter 03
  94. 00:16:36.370                             : Chapter 04
  95. 00:22:31.308                             : Chapter 05
  96. 00:27:17.219                             : Chapter 06
  97. 00:32:44.713                             : Chapter 07
  98. 00:38:48.201                             : Chapter 08
  99. 00:44:38.926                             : Chapter 09
  100. 00:49:44.607                             : Chapter 10
  101. 00:54:29.475                             : Chapter 11
  102. 01:00:32.170                             : Chapter 12
  103. 01:05:32.971                             : Chapter 13
  104. 01:11:29.327                             : Chapter 14
  105. 01:16:34.006                             : Chapter 15
  106. 01:22:27.192                             : Chapter 16