The text below is selected, press Ctrl+C to copy to your clipboard. (⌘+C on Mac) No line numbers will be copied.
Last Action Hero (1993) 2160p...

12th November 2022 04:52:49 PM | Views: 18
  1. Format                                   : Matroska
  2. Format version                           : Version 4
  3. File size                                : 41.8 GiB
  4. Duration                                 : 2 h 10 min
  5. Overall bit rate mode                    : Variable
  6. Overall bit rate                         : 45.7 Mb/s
  7. Movie name                               : Last Action Hero (1993) 2160p UHD BluRay x265 10bit HDR HEVC Dual Audio [Hindi TV-DL DDP2.0 + English DTS-HD MA 7.1] ESub 41.8GB [MoviezAddiction.life]
  8. Encoded date                             : UTC 2022-11-12 12:10:52
  9. Writing application                      : mkvmerge v71.1.0 ('Fortitude') 64-bit
  10. Writing library                          : libebml v1.4.4 + libmatroska v1.7.1
  11.  
  12. Video
  13. ID                                       : 1
  14. Format                                   : HEVC
  15. Format/Info                              : High Efficiency Video Coding
  16. Format profile                           : Main [email protected]@High
  17. HDR format                               : SMPTE ST 2086, HDR10 compatible
  18. Codec ID                                 : V_MPEGH/ISO/HEVC
  19. Duration                                 : 2 h 10 min
  20. Bit rate                                 : 41.1 Mb/s
  21. Width                                    : 3 840 pixels
  22. Height                                   : 1 606 pixels
  23. Display aspect ratio                     : 2.40:1
  24. Frame rate mode                          : Constant
  25. Frame rate                               : 23.976 (24000/1001) FPS
  26. Color space                              : YUV
  27. Chroma subsampling                       : 4:2:0 (Type 2)
  28. Bit depth                                : 10 bits
  29. Bits/(Pixel*Frame)                       : 0.278
  30. Stream size                              : 37.6 GiB (90%)
  31. Default                                  : Yes
  32. Forced                                   : No
  33. Color range                              : Limited
  34. Color primaries                          : BT.2020
  35. Transfer characteristics                 : PQ
  36. Matrix coefficients                      : BT.2020 non-constant
  37. Mastering display color primaries        : Display P3
  38. Mastering display luminance              : min: 0.0050 cd/m2, max: 4000 cd/m2
  39. Maximum Content Light Level              : 3991 cd/m2
  40. Maximum Frame-Average Light Level        : 1352 cd/m2
  41.  
  42. Audio #1
  43. ID                                       : 2
  44. Format                                   : E-AC-3
  45. Format/Info                              : Enhanced AC-3
  46. Commercial name                          : Dolby Digital Plus
  47. Codec ID                                 : A_EAC3
  48. Duration                                 : 2 h 10 min
  49. Bit rate mode                            : Constant
  50. Bit rate                                 : 224 kb/s
  51. Channel(s)                               : 2 channels
  52. Channel layout                           : L R
  53. Sampling rate                            : 48.0 kHz
  54. Frame rate                               : 31.250 FPS (1536 SPF)
  55. Compression mode                         : Lossy
  56. Delay relative to video                  : -600 ms
  57. Stream size                              : 210 MiB (0%)
  58. Title                                    : Hindi
  59. Language                                 : Hindi
  60. Service kind                             : Complete Main
  61. Default                                  : Yes
  62. Forced                                   : No
  63.  
  64. Audio #2
  65. ID                                       : 3
  66. Format                                   : DTS XLL
  67. Format/Info                              : Digital Theater Systems
  68. Commercial name                          : DTS-HD Master Audio
  69. Codec ID                                 : A_DTS
  70. Duration                                 : 2 h 10 min
  71. Bit rate mode                            : Variable
  72. Bit rate                                 : 4 336 kb/s
  73. Channel(s)                               : 8 channels
  74. Channel layout                           : C L R LFE Lb Rb Lss Rss
  75. Sampling rate                            : 48.0 kHz
  76. Frame rate                               : 93.750 FPS (512 SPF)
  77. Bit depth                                : 24 bits
  78. Compression mode                         : Lossless
  79. Stream size                              : 3.97 GiB (9%)
  80. Title                                    : English
  81. Language                                 : English
  82. Default                                  : No
  83. Forced                                   : No
  84.  
  85. Text
  86. ID                                       : 4
  87. ID in the original source medium         : 4769 (0x12A1)
  88. Format                                   : PGS
  89. Codec ID                                 : S_HDMV/PGS
  90. Codec ID/Info                            : Picture based subtitle format used on BDs/HD-DVDs
  91. Duration                                 : 2 h 2 min
  92. Bit rate                                 : 33.3 kb/s
  93. Frame rate                               : 0.362 FPS
  94. Count of elements                        : 2658
  95. Stream size                              : 29.2 MiB (0%)
  96. Title                                    : English [PGS]
  97. Language                                 : English
  98. Default                                  : Yes
  99. Forced                                   : No
  100. Original source medium                   : Blu-ray
  101.  
  102. Menu
  103. 00:00:00.600                             : en:Chapter 01
  104. 00:08:33.529                             : en:Chapter 02
  105. 00:19:24.262                             : en:Chapter 03
  106. 00:30:33.722                             : en:Chapter 04
  107. 00:37:02.528                             : en:Chapter 05
  108. 00:46:53.118                             : en:Chapter 06
  109. 00:51:52.417                             : en:Chapter 07
  110. 00:59:47.641                             : en:Chapter 08
  111. 01:07:06.622                             : en:Chapter 09
  112. 01:18:16.416                             : en:Chapter 10
  113. 01:24:16.484                             : en:Chapter 11
  114. 01:32:16.755                             : en:Chapter 12
  115. 01:45:29.505                             : en:Chapter 13
  116. 01:50:06.282                             : en:Chapter 14
  117. 01:58:51.223                             : en:Chapter 15
  118. 02:02:04.583                             : en:Chapter 16