The text below is selected, press Ctrl+C to copy to your clipboard. (⌘+C on Mac) No line numbers will be copied.
Minority Report 2002

18th September 2020 01:41:55 PM | Views: 28
  1. General
  2. Unique ID                                : 239876972224911824399948479267102748150 (0xB4769FD737602B33B81D9642A7576DF6)
  3. Complete name                            : Minority Report 2002 1080p BluRay x264 (Hindi DD 5.1 + English DD 5.1) ~LustMovies.pro~ (6.4 G).mkv
  4. Format                                   : Matroska
  5. Format version                           : Version 4
  6. File size                                : 6.38 GiB
  7. Duration                                 : 2 h 25 min
  8. Overall bit rate                         : 6 262 kb/s
  9. Movie name                               : LustMovies.pro | Minority Report 2002
  10. Encoded date                             : UTC 2020-09-18 07:21:25
  11. Writing application                      : mkvmerge v8.2.0 ('World of Adventure') 32bit
  12. Writing library                          : libebml v1.3.1 + libmatroska v1.4.2
  13.  
  14. Video
  15. ID                                       : 1
  16. Format                                   : AVC
  17. Format/Info                              : Advanced Video Codec
  18. Format profile                           : [email protected]
  19. Format settings                          : CABAC / 5 Ref Frames
  20. Format settings, CABAC                   : Yes
  21. Format settings, Reference frames        : 5 frames
  22. Codec ID                                 : V_MPEG4/ISO/AVC
  23. Duration                                 : 2 h 25 min
  24. Bit rate                                 : 5 000 kb/s
  25. Width                                    : 1 920 pixels
  26. Height                                   : 800 pixels
  27. Display aspect ratio                     : 2.40:1
  28. Frame rate mode                          : Constant
  29. Frame rate                               : 23.976 (24000/1001) FPS
  30. Color space                              : YUV
  31. Chroma subsampling                       : 4:2:0
  32. Bit depth                                : 8 bits
  33. Scan type                                : Progressive
  34. Bits/(Pixel*Frame)                       : 0.136
  35. Stream size                              : 4.95 GiB (78%)
  36. Title                                    : LustMovies.pro
  37. Writing library                          : x264 core 157 r2969 d4099dd
  38. Encoding settings                        : cabac=1 / ref=5 / deblock=1:-1:-1 / analyse=0x3:0x113 / me=umh / subme=9 / psy=1 / psy_rd=1.00:0.15 / mixed_ref=1 / me_range=18 / chroma_me=1 / trellis=2 / 8x8dct=1 / cqm=0 / deadzone=21,11 / fast_pskip=1 / chroma_qp_offset=-3 / threads=24 / lookahead_threads=2 / sliced_threads=0 / nr=1000 / decimate=1 / interlaced=0 / bluray_compat=0 / constrained_intra=0 / bframes=3 / b_pyramid=2 / b_adapt=1 / b_bias=0 / direct=3 / weightb=1 / open_gop=0 / weightp=2 / keyint=240 / keyint_min=23 / scenecut=40 / intra_refresh=0 / rc_lookahead=50 / rc=2pass / mbtree=1 / bitrate=5000 / ratetol=1.0 / qcomp=0.60 / qpmin=0 / qpmax=69 / qpstep=4 / cplxblur=20.0 / qblur=0.5 / vbv_maxrate=62500 / vbv_bufsize=78125 / nal_hrd=none / filler=0 / ip_ratio=1.40 / aq=1:1.00
  39. Language                                 : English
  40. Default                                  : Yes
  41. Forced                                   : Yes
  42. Color range                              : Limited
  43. Color primaries                          : Generic film
  44. Transfer characteristics                 : BT.709
  45. Matrix coefficients                      : BT.709
  46. Duration_Source                          : General_Duration
  47.  
  48. Audio #1
  49. ID                                       : 2
  50. Format                                   : AC-3
  51. Format/Info                              : Audio Coding 3
  52. Commercial name                          : Dolby Digital
  53. Codec ID                                 : A_AC3
  54. Duration                                 : 2 h 25 min
  55. Bit rate mode                            : Constant
  56. Bit rate                                 : 640 kb/s
  57. Channel(s)                               : 6 channels
  58. Channel layout                           : L R C LFE Ls Rs
  59. Sampling rate                            : 48.0 kHz
  60. Frame rate                               : 31.250 FPS (1536 SPF)
  61. Compression mode                         : Lossy
  62. Delay relative to video                  : 1 s 50 ms
  63. Stream size                              : 668 MiB (10%)
  64. Title                                    : LustMovies.pro
  65. Language                                 : Hindi
  66. Service kind                             : Complete Main
  67. Default                                  : Yes
  68. Forced                                   : Yes
  69. Duration_Source                          : General_Duration
  70.  
  71. Audio #2
  72. ID                                       : 3
  73. Format                                   : AC-3
  74. Format/Info                              : Audio Coding 3
  75. Commercial name                          : Dolby Digital
  76. Codec ID                                 : A_AC3
  77. Duration                                 : 2 h 25 min
  78. Bit rate mode                            : Constant
  79. Bit rate                                 : 640 kb/s
  80. Channel(s)                               : 6 channels
  81. Channel layout                           : L R C LFE Ls Rs
  82. Sampling rate                            : 48.0 kHz
  83. Frame rate                               : 31.250 FPS (1536 SPF)
  84. Compression mode                         : Lossy
  85. Stream size                              : 668 MiB (10%)
  86. Title                                    : LustMovies.pro
  87. Language                                 : English
  88. Service kind                             : Complete Main
  89. Default                                  : No
  90. Forced                                   : No
  91. Duration_Source                          : General_Duration
  92.  
  93. Text
  94. ID                                       : 4
  95. Format                                   : PGS
  96. Muxing mode                              : zlib
  97. Codec ID                                 : S_HDMV/PGS
  98. Codec ID/Info                            : Picture based subtitle format used on BDs/HD-DVDs
  99. Title                                    : LustMovies.pro
  100. Language                                 : English
  101. Default                                  : Yes
  102. Forced                                   : No
  103.  
  104. General
  105. Unique ID                                : 241963286213153331348609101595667592225 (0xB6086F0FE0B3BA8908EF2ECEB7B3F421)
  106. Complete name                            : Minority Report 2002 720p BluRay x264 (Hindi DD 5.1 + English DD 5.1) ~LustMovies.pro~ (1.4 G).mkv
  107. Format                                   : Matroska
  108. Format version                           : Version 4
  109. File size                                : 1.45 GiB
  110. Duration                                 : 2 h 25 min
  111. Overall bit rate                         : 1 419 kb/s
  112. Movie name                               : LustMovies.pro | Minority Report 2002
  113. Encoded date                             : UTC 2020-09-18 10:02:47
  114. Writing application                      : HandBrake 1.2.1 2019021900
  115. Writing library                          : Lavf58.20.100
  116. ErrorDetectionType                       : Per level 1
  117.  
  118. Video
  119. ID                                       : 1
  120. Format                                   : AVC
  121. Format/Info                              : Advanced Video Codec
  122. Format profile                           : [email protected]
  123. Format settings                          : CABAC / 4 Ref Frames
  124. Format settings, CABAC                   : Yes
  125. Format settings, Reference frames        : 4 frames
  126. Codec ID                                 : V_MPEG4/ISO/AVC
  127. Duration                                 : 2 h 25 min
  128. Bit rate                                 : 950 kb/s
  129. Width                                    : 1 280 pixels
  130. Height                                   : 720 pixels
  131. Display aspect ratio                     : 2.40:1
  132. Frame rate mode                          : Constant
  133. Frame rate                               : 23.976 (24000/1001) FPS
  134. Color space                              : YUV
  135. Chroma subsampling                       : 4:2:0
  136. Bit depth                                : 8 bits
  137. Scan type                                : Progressive
  138. Bits/(Pixel*Frame)                       : 0.043
  139. Stream size                              : 984 MiB (66%)
  140. Title                                    : LustMovies.pro
  141. Writing library                          : x264 core 152 r2854 e9a5903
  142. Encoding settings                        : cabac=1 / ref=1 / deblock=1:-1:-1 / analyse=0x3:0x113 / me=hex / subme=2 / psy=1 / psy_rd=1.00:0.15 / mixed_ref=0 / me_range=16 / chroma_me=1 / trellis=0 / 8x8dct=1 / cqm=0 / deadzone=21,11 / fast_pskip=1 / chroma_qp_offset=0 / threads=22 / lookahead_threads=5 / sliced_threads=0 / nr=0 / decimate=1 / interlaced=0 / bluray_compat=0 / constrained_intra=0 / bframes=3 / b_pyramid=2 / b_adapt=1 / b_bias=0 / direct=1 / weightb=1 / open_gop=0 / weightp=1 / keyint=240 / keyint_min=24 / scenecut=40 / intra_refresh=0 / rc_lookahead=10 / rc=abr / mbtree=1 / bitrate=950 / ratetol=1.0 / qcomp=0.60 / qpmin=0 / qpmax=69 / qpstep=4 / vbv_maxrate=17500 / vbv_bufsize=17500 / nal_hrd=none / filler=0 / ip_ratio=1.40 / aq=1:1.00
  143. Default                                  : Yes
  144. Forced                                   : No
  145. Color range                              : Limited
  146. Color primaries                          : BT.709
  147. Transfer characteristics                 : BT.709
  148. Matrix coefficients                      : BT.709
  149. Duration_Source                          : General_Duration
  150.  
  151. Audio #1
  152. ID                                       : 2
  153. Format                                   : AC-3
  154. Format/Info                              : Audio Coding 3
  155. Commercial name                          : Dolby Digital
  156. Codec ID                                 : A_AC3
  157. Duration                                 : 2 h 25 min
  158. Bit rate mode                            : Constant
  159. Bit rate                                 : 224 kb/s
  160. Channel(s)                               : 6 channels
  161. Channel layout                           : L R C LFE Ls Rs
  162. Sampling rate                            : 48.0 kHz
  163. Frame rate                               : 31.250 FPS (1536 SPF)
  164. Compression mode                         : Lossy
  165. Delay relative to video                  : 1 s 45 ms
  166. Stream size                              : 234 MiB (16%)
  167. Title                                    : LustMovies.pro
  168. Language                                 : Hindi
  169. Service kind                             : Complete Main
  170. Default                                  : Yes
  171. Forced                                   : No
  172. Duration_Source                          : General_Duration
  173.  
  174. Audio #2
  175. ID                                       : 3
  176. Format                                   : AC-3
  177. Format/Info                              : Audio Coding 3
  178. Commercial name                          : Dolby Digital
  179. Codec ID                                 : A_AC3
  180. Duration                                 : 2 h 25 min
  181. Bit rate mode                            : Constant
  182. Bit rate                                 : 224 kb/s
  183. Channel(s)                               : 6 channels
  184. Channel layout                           : L R C LFE Ls Rs
  185. Sampling rate                            : 48.0 kHz
  186. Frame rate                               : 31.250 FPS (1536 SPF)
  187. Compression mode                         : Lossy
  188. Delay relative to video                  : -5 ms
  189. Stream size                              : 234 MiB (16%)
  190. Title                                    : LustMovies.pro
  191. Language                                 : English
  192. Service kind                             : Complete Main
  193. Default                                  : No
  194. Forced                                   : No
  195. Duration_Source                          : General_Duration
  196.  
  197. Text
  198. ID                                       : 4
  199. Format                                   : PGS
  200. Codec ID                                 : S_HDMV/PGS
  201. Codec ID/Info                            : Picture based subtitle format used on BDs/HD-DVDs
  202. Title                                    : LustMovies.pro
  203. Language                                 : English
  204. Default                                  : Yes
  205. Forced                                   : Yes
  206.  
  207. General
  208. Unique ID                                : 25885972861386869873254408711606629713 (0x137974FFBE4D0AA4954BA564A637F551)
  209. Complete name                            : Minority Report 2002 480p BluRay x264 (Hindi DD 2.0 + English DD 2.0) ~LustMovies.pro~ (699.7 M).mkv
  210. Format                                   : Matroska
  211. Format version                           : Version 4
  212. File size                                : 700 MiB
  213. Duration                                 : 2 h 25 min
  214. Overall bit rate                         : 670 kb/s
  215. Movie name                               : LustMovies.pro | Minority Report 2002
  216. Encoded date                             : UTC 2020-09-18 10:43:50
  217. Writing application                      : HandBrake 1.2.1 2019021900
  218. Writing library                          : Lavf58.20.100
  219. ErrorDetectionType                       : Per level 1
  220.  
  221. Video
  222. ID                                       : 1
  223. Format                                   : AVC
  224. Format/Info                              : Advanced Video Codec
  225. Format profile                           : [email protected]
  226. Format settings                          : CABAC / 4 Ref Frames
  227. Format settings, CABAC                   : Yes
  228. Format settings, Reference frames        : 4 frames
  229. Codec ID                                 : V_MPEG4/ISO/AVC
  230. Duration                                 : 2 h 25 min
  231. Bit rate                                 : 450 kb/s
  232. Width                                    : 720 pixels
  233. Height                                   : 480 pixels
  234. Display aspect ratio                     : 2.40:1
  235. Frame rate mode                          : Constant
  236. Frame rate                               : 23.976 (24000/1001) FPS
  237. Color space                              : YUV
  238. Chroma subsampling                       : 4:2:0
  239. Bit depth                                : 8 bits
  240. Scan type                                : Progressive
  241. Bits/(Pixel*Frame)                       : 0.054
  242. Stream size                              : 485 MiB (69%)
  243. Title                                    : LustMovies.pro
  244. Writing library                          : x264 core 152 r2854 e9a5903
  245. Encoding settings                        : cabac=1 / ref=1 / deblock=1:-1:-1 / analyse=0x1:0x111 / me=hex / subme=2 / psy=1 / psy_rd=1.00:0.15 / mixed_ref=0 / me_range=16 / chroma_me=1 / trellis=0 / 8x8dct=0 / cqm=0 / deadzone=21,11 / fast_pskip=1 / chroma_qp_offset=0 / threads=15 / lookahead_threads=3 / sliced_threads=0 / nr=0 / decimate=1 / interlaced=0 / bluray_compat=0 / constrained_intra=0 / bframes=3 / b_pyramid=2 / b_adapt=1 / b_bias=0 / direct=1 / weightb=1 / open_gop=0 / weightp=1 / keyint=240 / keyint_min=24 / scenecut=40 / intra_refresh=0 / rc_lookahead=10 / rc=abr / mbtree=1 / bitrate=450 / ratetol=1.0 / qcomp=0.60 / qpmin=0 / qpmax=69 / qpstep=4 / vbv_maxrate=14000 / vbv_bufsize=14000 / nal_hrd=none / filler=0 / ip_ratio=1.40 / aq=1:1.00
  246. Default                                  : Yes
  247. Forced                                   : No
  248. Color range                              : Limited
  249. Color primaries                          : BT.709
  250. Transfer characteristics                 : BT.709
  251. Matrix coefficients                      : BT.709
  252. Duration_Source                          : General_Duration
  253.  
  254. Audio #1
  255. ID                                       : 2
  256. Format                                   : AC-3
  257. Format/Info                              : Audio Coding 3
  258. Commercial name                          : Dolby Digital
  259. Codec ID                                 : A_AC3
  260. Duration                                 : 2 h 25 min
  261. Bit rate mode                            : Constant
  262. Bit rate                                 : 96.0 kb/s
  263. Channel(s)                               : 2 channels
  264. Channel layout                           : L R
  265. Sampling rate                            : 48.0 kHz
  266. Frame rate                               : 31.250 FPS (1536 SPF)
  267. Compression mode                         : Lossy
  268. Delay relative to video                  : 1 s 45 ms
  269. Stream size                              : 100 MiB (14%)
  270. Title                                    : LustMovies.pro
  271. Language                                 : Hindi
  272. Service kind                             : Complete Main
  273. Default                                  : Yes
  274. Forced                                   : No
  275. Duration_Source                          : General_Duration
  276.  
  277. Audio #2
  278. ID                                       : 3
  279. Format                                   : AC-3
  280. Format/Info                              : Audio Coding 3
  281. Commercial name                          : Dolby Digital
  282. Codec ID                                 : A_AC3
  283. Duration                                 : 2 h 25 min
  284. Bit rate mode                            : Constant
  285. Bit rate                                 : 96.0 kb/s
  286. Channel(s)                               : 2 channels
  287. Channel layout                           : L R
  288. Sampling rate                            : 48.0 kHz
  289. Frame rate                               : 31.250 FPS (1536 SPF)
  290. Compression mode                         : Lossy
  291. Delay relative to video                  : -5 ms
  292. Stream size                              : 100 MiB (14%)
  293. Title                                    : LustMovies.pro
  294. Language                                 : English
  295. Service kind                             : Complete Main
  296. Default                                  : No
  297. Forced                                   : No
  298. Duration_Source                          : General_Duration
  299.  
  300. Text
  301. ID                                       : 4
  302. Format                                   : PGS
  303. Codec ID                                 : S_HDMV/PGS
  304. Codec ID/Info                            : Picture based subtitle format used on BDs/HD-DVDs
  305. Title                                    : LustMovies.pro
  306. Language                                 : English
  307. Default                                  : Yes
  308. Forced                                   : Yes