The text below is selected, press Ctrl+C to copy to your clipboard. (⌘+C on Mac) No line numbers will be copied.
The Santa Clauses (2022) S01E01...

23rd November 2022 08:21:52 AM | Views: 12
  1. Format                                   : Matroska
  2. Format version                           : Version 4
  3. File size                                : 3.22 GiB
  4. Duration                                 : 32 min 31 s
  5. Overall bit rate                         : 14.2 Mb/s
  6. Movie name                               : The Santa Clauses (2022) S01E01 [Good to Ho] 2160p DSNP UHD WEB-DL x265 10bit HDR HEVC English DDP5.1 Atmos ESub 3.22GB [MoviezAddiction.life]
  7. Encoded date                             : UTC 2022-11-23 04:50:34
  8. Writing application                      : mkvmerge v72.0.0 ('Minuano (Six-eight)') 64-bit
  9. Writing library                          : libebml v1.4.4 + libmatroska v1.7.1
  10.  
  11. Video
  12. ID                                       : 1
  13. Format                                   : HEVC
  14. Format/Info                              : High Efficiency Video Coding
  15. Format profile                           : Main [email protected]@High
  16. HDR format                               : SMPTE ST 2086, HDR10 compatible
  17. Codec ID                                 : V_MPEGH/ISO/HEVC
  18. Duration                                 : 32 min 31 s
  19. Bit rate                                 : 13.4 Mb/s
  20. Width                                    : 3 840 pixels
  21. Height                                   : 2 160 pixels
  22. Display aspect ratio                     : 16:9
  23. Frame rate mode                          : Constant
  24. Frame rate                               : 23.976 (24000/1001) FPS
  25. Color space                              : YUV
  26. Chroma subsampling                       : 4:2:0
  27. Bit depth                                : 10 bits
  28. Bits/(Pixel*Frame)                       : 0.067
  29. Stream size                              : 3.05 GiB (95%)
  30. Default                                  : Yes
  31. Forced                                   : No
  32. Color range                              : Limited
  33. Color primaries                          : BT.2020
  34. Transfer characteristics                 : PQ
  35. Matrix coefficients                      : BT.2020 non-constant
  36. Mastering display color primaries        : Display P3
  37. Mastering display luminance              : min: 0.0050 cd/m2, max: 1000 cd/m2
  38.  
  39. Audio
  40. ID                                       : 2
  41. Format                                   : E-AC-3 JOC
  42. Format/Info                              : Enhanced AC-3 with Joint Object Coding
  43. Commercial name                          : Dolby Digital Plus with Dolby Atmos
  44. Codec ID                                 : A_EAC3
  45. Duration                                 : 32 min 31 s
  46. Bit rate mode                            : Constant
  47. Bit rate                                 : 768 kb/s
  48. Channel(s)                               : 6 channels
  49. Channel layout                           : L R C LFE Ls Rs
  50. Sampling rate                            : 48.0 kHz
  51. Frame rate                               : 31.250 FPS (1536 SPF)
  52. Compression mode                         : Lossy
  53. Stream size                              : 179 MiB (5%)
  54. Title                                    : English
  55. Language                                 : English
  56. Service kind                             : Complete Main
  57. Default                                  : Yes
  58. Forced                                   : No
  59. Complexity index                         : 16
  60. Number of dynamic objects                : 15
  61. Bed channel count                        : 1 channel
  62. Bed channel configuration                : LFE
  63.  
  64. Text
  65. ID                                       : 3
  66. Format                                   : UTF-8
  67. Codec ID                                 : S_TEXT/UTF8
  68. Codec ID/Info                            : UTF-8 Plain Text
  69. Duration                                 : 28 min 30 s
  70. Bit rate                                 : 97 b/s
  71. Frame rate                               : 0.343 FPS
  72. Count of elements                        : 587
  73. Stream size                              : 20.3 KiB (0%)
  74. Title                                    : English [SRT]
  75. Language                                 : English
  76. Default                                  : Yes
  77. Forced                                   : No