The text below is selected, press Ctrl+C to copy to your clipboard. (⌘+C on Mac) No line numbers will be copied.
The Thing (1982) ARROW REMASTERED...

6th November 2022 04:10:15 PM | Views: 23
  1. Format                                   : Matroska
  2. Format version                           : Version 4
  3. File size                                : 2.62 GiB
  4. Duration                                 : 1 h 48 min
  5. Overall bit rate                         : 3 452 kb/s
  6. Movie name                               : The Thing (1982) ARROW REMASTERED 1080p BluRay x265 10bit HEVC Dual Audio [Hindi VCD DD2.0 + English DTS 5.1] ESub 2.61GB [MoviezAddiction.life]
  7. Encoded date                             : UTC 2022-11-06 12:51:55
  8. Writing application                      : mkvmerge v71.1.0 ('Fortitude') 64-bit
  9. Writing library                          : libebml v1.4.4 + libmatroska v1.7.1
  10.  
  11. Video
  12. ID                                       : 1
  13. Format                                   : HEVC
  14. Format/Info                              : High Efficiency Video Coding
  15. Format profile                           : Main [email protected]@Main
  16. Codec ID                                 : V_MPEGH/ISO/HEVC
  17. Duration                                 : 1 h 48 min
  18. Bit rate                                 : 1 699 kb/s
  19. Width                                    : 1 920 pixels
  20. Height                                   : 816 pixels
  21. Display aspect ratio                     : 2.35:1
  22. Frame rate mode                          : Variable
  23. Frame rate                               : 23.976 (24000/1001) FPS
  24. Color space                              : YUV
  25. Chroma subsampling                       : 4:2:0
  26. Bit depth                                : 10 bits
  27. Bits/(Pixel*Frame)                       : 0.045
  28. Stream size                              : 1.29 GiB (49%)
  29. Default                                  : Yes
  30. Forced                                   : No
  31. Color range                              : Limited
  32. Color primaries                          : BT.709
  33. Transfer characteristics                 : BT.709
  34. Matrix coefficients                      : BT.709
  35.  
  36. Audio #1
  37. ID                                       : 2
  38. Format                                   : AC-3
  39. Format/Info                              : Audio Coding 3
  40. Commercial name                          : Dolby Digital
  41. Codec ID                                 : A_AC3
  42. Duration                                 : 1 h 48 min
  43. Bit rate mode                            : Constant
  44. Bit rate                                 : 224 kb/s
  45. Channel(s)                               : 2 channels
  46. Channel layout                           : L R
  47. Sampling rate                            : 48.0 kHz
  48. Frame rate                               : 31.250 FPS (1536 SPF)
  49. Compression mode                         : Lossy
  50. Stream size                              : 174 MiB (6%)
  51. Title                                    : Hindi
  52. Language                                 : Hindi
  53. Service kind                             : Complete Main
  54. Default                                  : Yes
  55. Forced                                   : No
  56.  
  57. Audio #2
  58. ID                                       : 3
  59. Format                                   : DTS
  60. Format/Info                              : Digital Theater Systems
  61. Codec ID                                 : A_DTS
  62. Duration                                 : 1 h 48 min
  63. Bit rate mode                            : Constant
  64. Bit rate                                 : 1 509 kb/s
  65. Channel(s)                               : 6 channels
  66. Channel layout                           : C L R Ls Rs LFE
  67. Sampling rate                            : 48.0 kHz
  68. Frame rate                               : 93.750 FPS (512 SPF)
  69. Bit depth                                : 24 bits
  70. Compression mode                         : Lossy
  71. Delay relative to video                  : -990 ms
  72. Stream size                              : 1.14 GiB (44%)
  73. Title                                    : English
  74. Language                                 : English
  75. Default                                  : No
  76. Forced                                   : No
  77.  
  78. Text
  79. ID                                       : 4
  80. Format                                   : PGS
  81. Codec ID                                 : S_HDMV/PGS
  82. Codec ID/Info                            : Picture based subtitle format used on BDs/HD-DVDs
  83. Duration                                 : 1 h 36 min
  84. Bit rate                                 : 19.1 kb/s
  85. Frame rate                               : 0.219 FPS
  86. Count of elements                        : 1266
  87. Stream size                              : 13.2 MiB (0%)
  88. Title                                    : English [PGS]
  89. Language                                 : English
  90. Default                                  : Yes
  91. Forced                                   : No
  92.  
  93. Menu
  94. 00:00:00.990                             : en:Chapter 01
  95. 00:02:07.908                             : en:Chapter 02
  96. 00:10:23.069                             : en:Chapter 03
  97. 00:15:48.728                             : en:Chapter 04
  98. 00:22:13.195                             : en:Chapter 05
  99. 00:27:00.482                             : en:Chapter 06
  100. 00:33:03.261                             : en:Chapter 07
  101. 00:37:21.645                             : en:Chapter 08
  102. 00:41:43.698                             : en:Chapter 09
  103. 00:46:30.943                             : en:Chapter 10
  104. 00:52:15.788                             : en:Chapter 11
  105. 00:57:35.482                             : en:Chapter 12
  106. 01:01:01.647                             : en:Chapter 13
  107. 01:06:15.377                             : en:Chapter 14
  108. 01:09:50.925                             : en:Chapter 15
  109. 01:14:22.613                             : en:Chapter 16
  110. 01:18:44.333                             : en:Chapter 17
  111. 01:27:59.429                             : en:Chapter 18
  112. 01:33:20.417                             : en:Chapter 19
  113. 01:37:48.268                             : en:Chapter 20
  114. 01:39:13.019                             : en:Chapter 21
  115. 01:42:08.694                             : en:Chapter 22
  116. 01:48:33.329                             : en:Chapter 23