The text below is selected, press Ctrl+C to copy to your clipboard. (⌘+C on Mac) No line numbers will be copied.
MediaInfo

19th April 2019 06:12:04 AM | Views: 85
  1. Format                      : Matroska
  2. Format version              : Version 4 / Version 2
  3. File size                   : 951 MiB
  4. Duration                    : 1 h 57 min
  5. Overall bit rate            : 1 134 kb/s
  6. Movie name                  : Badla.2019.1080p.NF.WEBRip.DD.5.1.x265-ALiEN
  7. Encoded date                : UTC 2019-04-19 05:57:04
  8. Writing application         : mkvmerge v28.2.0 ('The Awakening') 64-bit
  9. Writing library             : libebml v1.3.6 + libmatroska v1.4.9
  10.  
  11. Video
  12. ID                          : 1
  13. Format                      : AVC
  14. Format/Info                 : Advanced Video Codec
  15. Format profile              : [email protected]
  16. Format settings             : CABAC / 5 Ref Frames
  17. Format settings, CABAC      : Yes
  18. Format settings, ReFrames   : 5 frames
  19. Codec ID                    : V_MPEG4/ISO/AVC
  20. Duration                    : 1 h 57 min
  21. Bit rate                    : 1 068 kb/s
  22. Width                       : 1 280 pixels
  23. Height                      : 536 pixels
  24. Display aspect ratio        : 2.40:1
  25. Frame rate mode             : Constant
  26. Frame rate                  : 24.000 FPS
  27. Color space                 : YUV
  28. Chroma subsampling          : 4:2:0
  29. Bit depth                   : 8 bits
  30. Scan type                   : Progressive
  31. Bits/(Pixel*Frame)          : 0.065
  32. Stream size                 : 896 MiB (94%)
  33. Writing library             : x264 core 157 r2935 545de2f
  34. Encoding settings           : cabac=1 / ref=5 / deblock=1:-1:-1 / analyse=0x3:0x133 / me=umh / subme=9 / psy=1 / psy_rd=1.00:0.10 / mixed_ref=1 / me_range=24 / chroma_me=1 / trellis=2 / 8x8dct=1 / cqm=0 / deadzone=21,11 / fast_pskip=1 / chroma_qp_offset=-3 / threads=17 / lookahead_threads=1 / sliced_threads=0 / nr=0 / decimate=1 / interlaced=0 / bluray_compat=0 / constrained_intra=0 / bframes=3 / b_pyramid=2 / b_adapt=2 / b_bias=0 / direct=3 / weightb=1 / open_gop=0 / weightp=2 / keyint=250 / keyint_min=23 / scenecut=40 / intra_refresh=0 / rc_lookahead=60 / rc=2pass / mbtree=1 / bitrate=1068 / ratetol=1.0 / qcomp=0.60 / qpmin=0 / qpmax=69 / qpstep=4 / cplxblur=20.0 / qblur=0.5 / ip_ratio=1.40 / aq=1:1.00
  35. Default                     : Yes
  36. Forced                      : No
  37.  
  38. Audio
  39. ID                          : 2
  40. Format                      : AAC
  41. Format/Info                 : Advanced Audio Codec
  42. Format profile              : HE-AAC / LC
  43. Format settings             : Explicit
  44. Codec ID                    : A_AAC-2
  45. Duration                    : 1 h 57 min
  46. Bit rate                    : 64.0 kb/s
  47. Channel(s)                  : 2 channels
  48. Channel positions           : Front: L R
  49. Sampling rate               : 48.0 kHz / 24.0 kHz
  50. Frame rate                  : 23.438 FPS (1024 SPF)
  51. Compression mode            : Lossy
  52. Delay relative to video     : 1 ms
  53. Stream size                 : 53.7 MiB (6%)
  54. Language                    : Hindi
  55. Default                     : Yes
  56. Forced                      : No
  57.  
  58. Text #1
  59. ID                          : 3
  60. Format                      : ASS
  61. Codec ID                    : S_TEXT/ASS
  62. Codec ID/Info               : Advanced Sub Station Alpha
  63. Duration                    : 1 h 48 min
  64. Bit rate                    : 170 b/s
  65. Count of elements           : 1699
  66. Compression mode            : Lossless
  67. Stream size                 : 135 KiB (0%)
  68. Language                    : English
  69. Default                     : Yes
  70. Forced                      : No
  71.  
  72. Text #2
  73. ID                          : 4
  74. Format                      : ASS
  75. Codec ID                    : S_TEXT/ASS
  76. Codec ID/Info               : Advanced Sub Station Alpha
  77. Duration                    : 1 h 44 min
  78. Bit rate                    : 60 b/s
  79. Count of elements           : 418
  80. Compression mode            : Lossless
  81. Stream size                 : 46.7 KiB (0%)
  82. Language                    : Hindi
  83. Default                     : No
  84. Forced                      : No
  85.  
  86. Text #3
  87. ID                          : 5
  88. Format                      : ASS
  89. Codec ID                    : S_TEXT/ASS
  90. Codec ID/Info               : Advanced Sub Station Alpha
  91. Duration                    : 1 h 48 min
  92. Bit rate                    : 199 b/s
  93. Count of elements           : 1695
  94. Compression mode            : Lossless
  95. Stream size                 : 158 KiB (0%)
  96. Language                    : Arabic
  97. Default                     : No
  98. Forced                      : No
  99.  
  100. Menu #1
  101. 00:00:00.000                : en:फीचर प्रारंभ
  102. 00:01:03.125                : en:शीर्षक
  103. 01:51:47.000                : en:कलाकार व कर्मचारी वर्ग
  104.  
  105. Menu #2
  106. 00:00:00.000                : :फीचर प्रारंभ
  107. 00:01:03.125                : :शीर्षक
  108. 01:51:46.958                : :कलाकार व कर्मचारी वर्ग