The text below is selected, press Ctrl+C to copy to your clipboard. (⌘+C on Mac) No line numbers will be copied.
BomBhaat (2020) 1080p 10bit

10th January 2022 08:45:42 AM | Views: 14
  1. Format                                   : Matroska
  2. Format version                           : Version 4
  3. File size                                : 1.59 GiB
  4. Duration                                 : 1 h 57 min
  5. Overall bit rate                         : 1 926 kb/s
  6. Movie name                               : BomBhaat (2020) 1080p WEB-DL x265 10bit HEVC Hindi DDP2.0 ESub 1.58GB [www.MoviezAddiction.art]
  7. Encoded date                             : UTC 2022-01-10 07:25:13
  8. Writing application                      : mkvmerge v47.0.0 ('Black Flag') 64-bit
  9. Writing library                          : libebml v1.3.10 + libmatroska v1.5.2
  10.  
  11. Video
  12. ID                                       : 1
  13. Format                                   : HEVC
  14. Format/Info                              : High Efficiency Video Coding
  15. Format profile                           : Main [email protected]@Main
  16. Codec ID                                 : V_MPEGH/ISO/HEVC
  17. Duration                                 : 1 h 57 min
  18. Bit rate                                 : 1 700 kb/s
  19. Width                                    : 1 920 pixels
  20. Height                                   : 816 pixels
  21. Display aspect ratio                     : 2.35:1
  22. Frame rate mode                          : Constant
  23. Frame rate                               : 25.000 FPS
  24. Color space                              : YUV
  25. Chroma subsampling                       : 4:2:0
  26. Bit depth                                : 10 bits
  27. Bits/(Pixel*Frame)                       : 0.043
  28. Stream size                              : 1.40 GiB (88%)
  29. Title                                    : [www.MoviezAddiction.art]
  30. Default                                  : Yes
  31. Forced                                   : No
  32. Color range                              : Limited
  33. Color primaries                          : BT.709
  34. Transfer characteristics                 : BT.709
  35. Matrix coefficients                      : BT.709
  36.  
  37. Audio
  38. ID                                       : 2
  39. Format                                   : E-AC-3
  40. Format/Info                              : Enhanced AC-3
  41. Commercial name                          : Dolby Digital Plus
  42. Codec ID                                 : A_EAC3
  43. Duration                                 : 1 h 57 min
  44. Bit rate mode                            : Constant
  45. Bit rate                                 : 224 kb/s
  46. Channel(s)                               : 2 channels
  47. Channel layout                           : L R
  48. Sampling rate                            : 48.0 kHz
  49. Frame rate                               : 31.250 FPS (1536 SPF)
  50. Compression mode                         : Lossy
  51. Stream size                              : 189 MiB (12%)
  52. Title                                    : [www.MoviezAddiction.art] - Hindi
  53. Language                                 : Hindi
  54. Service kind                             : Complete Main
  55. Default                                  : Yes
  56. Forced                                   : No
  57.  
  58. Text
  59. ID                                       : 3
  60. Format                                   : UTF-8
  61. Codec ID                                 : S_TEXT/UTF8
  62. Codec ID/Info                            : UTF-8 Plain Text
  63. Duration                                 : 1 h 52 min
  64. Bit rate                                 : 55 b/s
  65. Count of elements                        : 1678
  66. Stream size                              : 45.4 KiB (0%)
  67. Title                                    : [www.MoviezAddiction.art] - English [SRT]
  68. Language                                 : English
  69. Default                                  : Yes
  70. Forced                                   : No