The text below is selected, press Ctrl+C to copy to your clipboard. (⌘+C on Mac) No line numbers will be copied.
Neighbors 2 Sorority Rising (2016)...

12th September 2020 03:25:47 PM | Views: 18
  1. Format                                   : Matroska
  2. Format version                           : Version 4
  3. File size                                : 4.00 GiB
  4. Duration                                 : 1 h 32 min
  5. Overall bit rate                         : 6 195 kb/s
  6. Movie name                               : Neighbors 2 Sorority Rising (2016) 1080p Bluray x264 Dual Audio [ Hindi DDP5.1 + English DTS5.1 ] MSubs [www.MoviezAddiction.space]
  7. Encoded date                             : UTC 2020-09-12 12:42:47
  8. Writing application                      : mkvmerge v48.0.0 ('Fortress Around Your Heart') 64-bit
  9. Writing library                          : libebml v1.4.0 + libmatroska v1.6.0
  10.  
  11. Video
  12. ID                                       : 1
  13. Format                                   : AVC
  14. Format/Info                              : Advanced Video Codec
  15. Format profile                           : [email protected]
  16. Format settings                          : CABAC / 5 Ref Frames
  17. Format settings, CABAC                   : Yes
  18. Format settings, Reference frames        : 5 frames
  19. Codec ID                                 : V_MPEG4/ISO/AVC
  20. Duration                                 : 1 h 32 min
  21. Bit rate                                 : 4 000 kb/s
  22. Width                                    : 1 920 pixels
  23. Height                                   : 800 pixels
  24. Display aspect ratio                     : 2.40:1
  25. Frame rate mode                          : Constant
  26. Frame rate                               : 23.976 (24000/1001) FPS
  27. Color space                              : YUV
  28. Chroma subsampling                       : 4:2:0
  29. Bit depth                                : 8 bits
  30. Scan type                                : Progressive
  31. Bits/(Pixel*Frame)                       : 0.109
  32. Stream size                              : 2.58 GiB (65%)
  33. Title                                    : [www.MoviezAddiction.space]
  34. Writing library                          : x264 core 160 r3000 33f9e14
  35. Encoding settings                        : cabac=1 / ref=5 / deblock=1:0:0 / analyse=0x3:0x113 / me=hex / subme=8 / psy=1 / psy_rd=1.00:0.00 / mixed_ref=1 / me_range=16 / chroma_me=1 / trellis=2 / 8x8dct=1 / cqm=0 / deadzone=21,11 / fast_pskip=1 / chroma_qp_offset=-2 / threads=12 / lookahead_threads=2 / sliced_threads=0 / nr=0 / decimate=1 / interlaced=0 / bluray_compat=0 / constrained_intra=0 / bframes=3 / b_pyramid=2 / b_adapt=1 / b_bias=0 / direct=3 / weightb=1 / open_gop=0 / weightp=2 / keyint=250 / keyint_min=23 / scenecut=40 / intra_refresh=0 / rc_lookahead=50 / rc=2pass / mbtree=1 / bitrate=4000 / ratetol=1.0 / qcomp=0.60 / qpmin=0 / qpmax=69 / qpstep=4 / cplxblur=20.0 / qblur=0.5 / ip_ratio=1.40 / aq=1:1.00
  36. Default                                  : Yes
  37. Forced                                   : No
  38.  
  39. Audio #1
  40. ID                                       : 4
  41. Format                                   : DTS
  42. Format/Info                              : Digital Theater Systems
  43. Codec ID                                 : A_DTS
  44. Duration                                 : 1 h 32 min
  45. Bit rate mode                            : Constant
  46. Bit rate                                 : 1 509 kb/s
  47. Channel(s)                               : 6 channels
  48. Channel layout                           : C L R Ls Rs LFE
  49. Sampling rate                            : 48.0 kHz
  50. Frame rate                               : 93.750 FPS (512 SPF)
  51. Bit depth                                : 24 bits
  52. Compression mode                         : Lossy
  53. Stream size                              : 997 MiB (24%)
  54. Title                                    : [www.MoviezAddiction.space]
  55. Language                                 : English
  56. Default                                  : No
  57. Forced                                   : No
  58.  
  59. Audio #2
  60. ID                                       : 7
  61. Format                                   : E-AC-3
  62. Format/Info                              : Enhanced AC-3
  63. Commercial name                          : Dolby Digital Plus
  64. Codec ID                                 : A_EAC3
  65. Duration                                 : 1 h 32 min
  66. Bit rate mode                            : Constant
  67. Bit rate                                 : 640 kb/s
  68. Channel(s)                               : 6 channels
  69. Channel layout                           : L R C LFE Ls Rs
  70. Sampling rate                            : 48.0 kHz
  71. Frame rate                               : 31.250 FPS (1536 SPF)
  72. Compression mode                         : Lossy
  73. Stream size                              : 423 MiB (10%)
  74. Title                                    : [www.MoviezAddiction.space]
  75. Language                                 : Hindi
  76. Service kind                             : Complete Main
  77. Default                                  : Yes
  78. Forced                                   : Yes
  79.  
  80. Text #1
  81. ID                                       : 2
  82. Format                                   : VobSub
  83. Muxing mode                              : zlib
  84. Codec ID                                 : S_VOBSUB
  85. Codec ID/Info                            : Picture based subtitle format used on DVDs
  86. Duration                                 : 1 h 25 min
  87. Bit rate                                 : 19.1 kb/s
  88. Count of elements                        : 2261
  89. Stream size                              : 11.6 MiB (0%)
  90. Title                                    : [www.MoviezAddiction.space]
  91. Language                                 : English
  92. Default                                  : No
  93. Forced                                   : No
  94.  
  95. Text #2
  96. ID                                       : 3
  97. Format                                   : VobSub
  98. Muxing mode                              : zlib
  99. Codec ID                                 : S_VOBSUB
  100. Codec ID/Info                            : Picture based subtitle format used on DVDs
  101. Duration                                 : 1 h 26 min
  102. Bit rate                                 : 23.1 kb/s
  103. Count of elements                        : 1961
  104. Stream size                              : 14.3 MiB (0%)
  105. Title                                    : [www.MoviezAddiction.space]
  106. Language                                 : English
  107. Default                                  : No
  108. Forced                                   : No
  109.  
  110. Text #3
  111. ID                                       : 5
  112. Format                                   : PGS
  113. Muxing mode                              : zlib
  114. Codec ID                                 : S_HDMV/PGS
  115. Codec ID/Info                            : Picture based subtitle format used on BDs/HD-DVDs
  116. Duration                                 : 1 h 30 min
  117. Bit rate                                 : 1 169 b/s
  118. Count of elements                        : 126
  119. Stream size                              : 772 KiB (0%)
  120. Title                                    : [www.MoviezAddiction.space]
  121. Language                                 : Hindi
  122. Default                                  : No
  123. Forced                                   : No
  124.  
  125. Text #4
  126. ID                                       : 6
  127. Format                                   : PGS
  128. Muxing mode                              : zlib
  129. Codec ID                                 : S_HDMV/PGS
  130. Codec ID/Info                            : Picture based subtitle format used on BDs/HD-DVDs
  131. Duration                                 : 1 h 25 min
  132. Bit rate                                 : 45.7 kb/s
  133. Count of elements                        : 4074
  134. Stream size                              : 27.9 MiB (1%)
  135. Title                                    : [www.MoviezAddiction.space]
  136. Language                                 : Hindi
  137. Default                                  : Yes
  138. Forced                                   : Yes
  139.  
  140. Menu
  141. 00:00:00.000                             : en:00:00:00.000
  142. 00:06:30.890                             : en:00:06:30.890
  143. 00:09:50.381                             : en:00:09:50.381
  144. 00:13:05.535                             : en:00:13:05.535
  145. 00:17:37.890                             : en:00:17:37.890
  146. 00:22:13.082                             : en:00:22:13.082
  147. 00:27:34.278                             : en:00:27:34.278
  148. 00:31:54.454                             : en:00:31:54.454
  149. 00:38:36.022                             : en:00:38:36.022
  150. 00:44:43.222                             : en:00:44:43.222
  151. 00:50:42.039                             : en:00:50:42.039
  152. 00:54:32.811                             : en:00:54:32.811
  153. 01:00:54.609                             : en:01:00:54.609
  154. 01:04:14.684                             : en:01:04:14.684
  155. 01:08:26.644                             : en:01:08:26.644
  156. 01:12:54.370                             : en:01:12:54.370
  157. 01:16:34.423                             : en:01:16:34.423
  158. 01:20:45.215                             : en:01:20:45.215
  159. 01:23:18.994                             : en:01:23:18.994
  160. 01:26:03.700                             : en:01:26:03.700