The text below is selected, press Ctrl+C to copy to your clipboard. (⌘+C on Mac) No line numbers will be copied.
Exorcist: The Beginning (2004) 720p

24th July 2020 07:28:54 PM | Views: 29
  1. General
  2. Unique ID                                : 261474239687713535057177893141569977819 (0xC4B61B5697A80FC67EC19630EDE5BDDB)
  3. Complete name                            : S:\Pending Movies\Exorcist The Beginning (2004) Working\Exorcist The Beginning (2004) 720p BluRay x264 Dual Audio [Hindi DD2.0 + English DD5.1] ESub 1.15GB [Www.MoviezAddiction.site].mkv
  4. Format                                   : Matroska
  5. Format version                           : Version 4
  6. File size                                : 1.15 GiB
  7. Duration                                 : 1 h 53 min
  8. Overall bit rate                         : 1 453 kb/s
  9. Movie name                               : Exorcist The Beginning (2004) 720p BluRay x264 Dual Audio [Hindi DD2.0 + English DD5.1] ESub [Www.MoviezAddiction.site]
  10. Encoded date                             : UTC 2020-07-24 16:46:50
  11. Writing application                      : mkvmerge v47.0.0 ('Black Flag') 64-bit
  12. Writing library                          : libebml v1.3.10 + libmatroska v1.5.2
  13.  
  14. Video
  15. ID                                       : 1
  16. Format                                   : AVC
  17. Format/Info                              : Advanced Video Codec
  18. Format profile                           : [email protected]
  19. Format settings                          : CABAC / 4 Ref Frames
  20. Format settings, CABAC                   : Yes
  21. Format settings, Reference frames        : 4 frames
  22. Codec ID                                 : V_MPEG4/ISO/AVC
  23. Duration                                 : 1 h 53 min
  24. Bit rate                                 : 1 099 kb/s
  25. Width                                    : 1 280 pixels
  26. Height                                   : 544 pixels
  27. Display aspect ratio                     : 2.35:1
  28. Frame rate mode                          : Constant
  29. Frame rate                               : 23.976 (24000/1001) FPS
  30. Color space                              : YUV
  31. Chroma subsampling                       : 4:2:0
  32. Bit depth                                : 8 bits
  33. Scan type                                : Progressive
  34. Bits/(Pixel*Frame)                       : 0.066
  35. Stream size                              : 892 MiB (76%)
  36. Title                                    : [Www.MoviezAddiction.site]
  37. Writing library                          : x264 core 160 r3000 33f9e14
  38. Encoding settings                        : cabac=1 / ref=3 / deblock=1:0:0 / analyse=0x1:0x111 / me=hex / subme=7 / psy=1 / psy_rd=1.00:0.00 / mixed_ref=1 / me_range=16 / chroma_me=1 / trellis=1 / 8x8dct=0 / cqm=0 / deadzone=21,11 / fast_pskip=1 / chroma_qp_offset=-2 / threads=12 / lookahead_threads=2 / sliced_threads=0 / nr=0 / decimate=1 / interlaced=0 / bluray_compat=0 / constrained_intra=0 / bframes=3 / b_pyramid=2 / b_adapt=1 / b_bias=0 / direct=1 / weightb=1 / open_gop=0 / weightp=2 / keyint=250 / keyint_min=23 / scenecut=40 / intra_refresh=0 / rc_lookahead=40 / rc=2pass / mbtree=1 / bitrate=1099 / ratetol=1.0 / qcomp=0.60 / qpmin=0 / qpmax=69 / qpstep=4 / cplxblur=20.0 / qblur=0.5 / ip_ratio=1.40 / aq=1:1.00
  39. Default                                  : Yes
  40. Forced                                   : No
  41.  
  42. Audio #1
  43. ID                                       : 2
  44. Format                                   : AAC LC
  45. Format/Info                              : Advanced Audio Codec Low Complexity
  46. Codec ID                                 : A_AAC-2
  47. Duration                                 : 1 h 53 min
  48. Bit rate                                 : 224 kb/s
  49. Channel(s)                               : 6 channels
  50. Channel layout                           : C L R Ls Rs LFE
  51. Sampling rate                            : 48.0 kHz
  52. Frame rate                               : 46.875 FPS (1024 SPF)
  53. Compression mode                         : Lossy
  54. Delay relative to video                  : 21 ms
  55. Stream size                              : 182 MiB (15%)
  56. Title                                    : [Www.MoviezAddiction.site]
  57. Language                                 : English
  58. Default                                  : No
  59. Forced                                   : No
  60.  
  61. Audio #2
  62. ID                                       : 3
  63. Format                                   : AAC LC
  64. Format/Info                              : Advanced Audio Codec Low Complexity
  65. Codec ID                                 : A_AAC-2
  66. Duration                                 : 1 h 53 min
  67. Bit rate                                 : 129 kb/s
  68. Channel(s)                               : 2 channels
  69. Channel layout                           : L R
  70. Sampling rate                            : 48.0 kHz
  71. Frame rate                               : 46.875 FPS (1024 SPF)
  72. Compression mode                         : Lossy
  73. Delay relative to video                  : 16 s 850 ms
  74. Stream size                              : 104 MiB (9%)
  75. Title                                    : [Www.MoviezAddiction.site]
  76. Language                                 : Hindi
  77. Default                                  : Yes
  78. Forced                                   : Yes
  79.  
  80. Text
  81. ID                                       : 4
  82. Format                                   : UTF-8
  83. Codec ID                                 : S_TEXT/UTF8
  84. Codec ID/Info                            : UTF-8 Plain Text
  85. Duration                                 : 1 h 52 min
  86. Bit rate                                 : 28 b/s
  87. Count of elements                        : 798
  88. Stream size                              : 23.3 KiB (0%)
  89. Language                                 : English
  90. Default                                  : Yes
  91. Forced                                   : No