The text below is selected, press Ctrl+C to copy to your clipboard. (⌘+C on Mac) No line numbers will be copied.
The Last Samurai (2003) 1080p

14th September 2020 02:27:04 PM | Views: 28
  1. Format                                   : Matroska
  2. Format version                           : Version 4
  3. File size                                : 5.25 GiB
  4. Duration                                 : 2 h 34 min
  5. Overall bit rate                         : 4 874 kb/s
  6. Movie name                               : The Last Samurai (2003) 1080p Bluray x264 Dual Audio [ Hindi DD2.0 + English DD5.1 ] ESubs [www.MoviezAddiction.space]
  7. Encoded date                             : UTC 2020-09-14 11:53:20
  8. Writing application                      : mkvmerge v48.0.0 ('Fortress Around Your Heart') 64-bit
  9. Writing library                          : libebml v1.4.0 + libmatroska v1.6.0
  10.  
  11. Video
  12. ID                                       : 1
  13. Format                                   : AVC
  14. Format/Info                              : Advanced Video Codec
  15. Format profile                           : [email protected]
  16. Format settings                          : CABAC / 5 Ref Frames
  17. Format settings, CABAC                   : Yes
  18. Format settings, Reference frames        : 5 frames
  19. Codec ID                                 : V_MPEG4/ISO/AVC
  20. Duration                                 : 2 h 34 min
  21. Bit rate                                 : 4 000 kb/s
  22. Width                                    : 1 920 pixels
  23. Height                                   : 792 pixels
  24. Display aspect ratio                     : 2.40:1
  25. Frame rate mode                          : Constant
  26. Frame rate                               : 23.976 (24000/1001) FPS
  27. Color space                              : YUV
  28. Chroma subsampling                       : 4:2:0
  29. Bit depth                                : 8 bits
  30. Scan type                                : Progressive
  31. Bits/(Pixel*Frame)                       : 0.110
  32. Stream size                              : 4.31 GiB (82%)
  33. Title                                    : [www.MoviezAddiction.space]
  34. Writing library                          : x264 core 160 r3000 33f9e14
  35. Encoding settings                        : cabac=1 / ref=5 / deblock=1:0:0 / analyse=0x3:0x113 / me=hex / subme=8 / psy=1 / psy_rd=1.00:0.00 / mixed_ref=1 / me_range=16 / chroma_me=1 / trellis=2 / 8x8dct=1 / cqm=0 / deadzone=21,11 / fast_pskip=1 / chroma_qp_offset=-2 / threads=12 / lookahead_threads=2 / sliced_threads=0 / nr=0 / decimate=1 / interlaced=0 / bluray_compat=0 / constrained_intra=0 / bframes=3 / b_pyramid=2 / b_adapt=1 / b_bias=0 / direct=3 / weightb=1 / open_gop=0 / weightp=2 / keyint=250 / keyint_min=23 / scenecut=40 / intra_refresh=0 / rc_lookahead=50 / rc=2pass / mbtree=1 / bitrate=4000 / ratetol=1.0 / qcomp=0.60 / qpmin=0 / qpmax=69 / qpstep=4 / cplxblur=20.0 / qblur=0.5 / ip_ratio=1.40 / aq=1:1.00
  36. Default                                  : Yes
  37. Forced                                   : No
  38.  
  39. Audio #1
  40. ID                                       : 4
  41. Format                                   : AC-3
  42. Format/Info                              : Audio Coding 3
  43. Commercial name                          : Dolby Digital
  44. Codec ID                                 : A_AC3
  45. Duration                                 : 2 h 34 min
  46. Bit rate mode                            : Constant
  47. Bit rate                                 : 640 kb/s
  48. Channel(s)                               : 6 channels
  49. Channel layout                           : L R C LFE Ls Rs
  50. Sampling rate                            : 48.0 kHz
  51. Frame rate                               : 31.250 FPS (1536 SPF)
  52. Compression mode                         : Lossy
  53. Stream size                              : 706 MiB (13%)
  54. Title                                    : [www.MoviezAddiction.space]
  55. Language                                 : English
  56. Service kind                             : Complete Main
  57. Default                                  : No
  58. Forced                                   : No
  59.  
  60. Audio #2
  61. ID                                       : 5
  62. Format                                   : AC-3
  63. Format/Info                              : Audio Coding 3
  64. Commercial name                          : Dolby Digital
  65. Codec ID                                 : A_AC3
  66. Duration                                 : 2 h 34 min
  67. Bit rate mode                            : Constant
  68. Bit rate                                 : 224 kb/s
  69. Channel(s)                               : 2 channels
  70. Channel layout                           : L R
  71. Sampling rate                            : 44.1 kHz
  72. Frame rate                               : 28.711 FPS (1536 SPF)
  73. Compression mode                         : Lossy
  74. Stream size                              : 247 MiB (5%)
  75. Title                                    : [www.MoviezAddiction.space]
  76. Language                                 : Hindi
  77. Service kind                             : Complete Main
  78. Default                                  : Yes
  79. Forced                                   : No
  80.  
  81. Text #1
  82. ID                                       : 2
  83. Format                                   : PGS
  84. Muxing mode                              : zlib
  85. Codec ID                                 : S_HDMV/PGS
  86. Codec ID/Info                            : Picture based subtitle format used on BDs/HD-DVDs
  87. Duration                                 : 2 h 19 min
  88. Bit rate                                 : 2 490 b/s
  89. Count of elements                        : 390
  90. Stream size                              : 2.49 MiB (0%)
  91. Title                                    : [www.MoviezAddiction.space]
  92. Language                                 : English
  93. Default                                  : No
  94. Forced                                   : Yes
  95.  
  96. Text #2
  97. ID                                       : 3
  98. Format                                   : PGS
  99. Muxing mode                              : zlib
  100. Codec ID                                 : S_HDMV/PGS
  101. Codec ID/Info                            : Picture based subtitle format used on BDs/HD-DVDs
  102. Duration                                 : 2 h 33 min
  103. Bit rate                                 : 18.8 kb/s
  104. Count of elements                        : 2168
  105. Stream size                              : 20.7 MiB (0%)
  106. Title                                    : [www.MoviezAddiction.space]
  107. Language                                 : English
  108. Default                                  : Yes
  109. Forced                                   : Yes
  110.  
  111. Menu
  112. 00:00:00.000                             : en:00:00:00.000
  113. 00:01:52.070                             : en:00:01:52.070
  114. 00:05:38.630                             : en:00:05:38.630
  115. 00:09:58.389                             : en:00:09:58.389
  116. 00:13:13.584                             : en:00:13:13.584
  117. 00:15:24.882                             : en:00:15:24.882
  118. 00:20:06.497                             : en:00:20:06.497
  119. 00:22:54.832                             : en:00:22:54.832
  120. 00:25:39.496                             : en:00:25:39.496
  121. 00:31:12.996                             : en:00:31:12.996
  122. 00:37:00.677                             : en:00:37:00.677
  123. 00:41:00.917                             : en:00:41:00.917
  124. 00:44:11.440                             : en:00:44:11.440
  125. 00:49:36.098                             : en:00:49:36.098
  126. 00:52:41.116                             : en:00:52:41.116
  127. 00:56:48.363                             : en:00:56:48.363
  128. 01:00:04.559                             : en:01:00:04.559
  129. 01:03:25.260                             : en:01:03:25.260
  130. 01:06:58.973                             : en:01:06:58.973
  131. 01:11:43.257                             : en:01:11:43.257
  132. 01:14:40.601                             : en:01:14:40.601
  133. 01:18:55.689                             : en:01:18:55.689
  134. 01:21:22.002                             : en:01:21:22.002
  135. 01:24:21.014                             : en:01:24:21.014
  136. 01:26:39.820                             : en:01:26:39.820
  137. 01:30:28.381                             : en:01:30:28.381
  138. 01:34:01.761                             : en:01:34:01.761
  139. 01:37:16.456                             : en:01:37:16.456
  140. 01:41:46.392                             : en:01:41:46.392
  141. 01:44:55.915                             : en:01:44:55.915
  142. 01:48:06.605                             : en:01:48:06.605
  143. 01:52:26.365                             : en:01:52:26.365
  144. 01:55:24.376                             : en:01:55:24.376
  145. 02:00:03.655                             : en:02:00:03.655
  146. 02:06:24.535                             : en:02:06:24.535
  147. 02:08:21.485                             : en:02:08:21.485
  148. 02:10:46.797                             : en:02:10:46.797
  149. 02:13:06.604                             : en:02:13:06.604
  150. 02:16:37.314                             : en:02:16:37.314
  151. 02:22:57.527                             : en:02:22:57.527
  152. 02:24:31.288                             : en:02:24:31.288