The text below is selected, press Ctrl+C to copy to your clipboard. (⌘+C on Mac) No line numbers will be copied.
Welcome to Marwen (2018) 720p

11th September 2020 07:09:41 AM | Views: 26
  1. Format                                   : Matroska
  2. Format version                           : Version 4
  3. File size                                : 1.28 GiB
  4. Duration                                 : 1 h 55 min
  5. Overall bit rate                         : 1 578 kb/s
  6. Movie name                               : Welcome to Marwen (2018) 720p BluRay x264 Dual Audio [Hindi DD5.1 + English BD5.1] MSubs 1.27GB [www.MoviezAddiction.site]
  7. Encoded date                             : UTC 2020-09-03 05:08:31
  8. Writing application                      : mkvmerge v48.0.0 ('Fortress Around Your Heart') 64-bit
  9. Writing library                          : libebml v1.4.0 + libmatroska v1.6.0
  10.  
  11. Video
  12. ID                                       : 1
  13. Format                                   : AVC
  14. Format/Info                              : Advanced Video Codec
  15. Format profile                           : [email protected]
  16. Format settings                          : CABAC / 4 Ref Frames
  17. Format settings, CABAC                   : Yes
  18. Format settings, Reference frames        : 4 frames
  19. Codec ID                                 : V_MPEG4/ISO/AVC
  20. Duration                                 : 1 h 55 min
  21. Bit rate                                 : 1 099 kb/s
  22. Width                                    : 1 280 pixels
  23. Height                                   : 536 pixels
  24. Display aspect ratio                     : 2.40:1
  25. Frame rate mode                          : Constant
  26. Frame rate                               : 23.976 (24000/1001) FPS
  27. Color space                              : YUV
  28. Chroma subsampling                       : 4:2:0
  29. Bit depth                                : 8 bits
  30. Scan type                                : Progressive
  31. Bits/(Pixel*Frame)                       : 0.067
  32. Stream size                              : 911 MiB (70%)
  33. Title                                    : [www.MoviezAddiction.site]
  34. Writing library                          : x264 core 160 r3009 4c9b076
  35. Encoding settings                        : cabac=1 / ref=3 / deblock=1:0:0 / analyse=0x3:0x113 / me=hex / subme=7 / psy=1 / psy_rd=1.00:0.00 / mixed_ref=1 / me_range=16 / chroma_me=1 / trellis=1 / 8x8dct=1 / cqm=0 / deadzone=21,11 / fast_pskip=1 / chroma_qp_offset=-2 / threads=17 / lookahead_threads=2 / sliced_threads=0 / nr=0 / decimate=1 / interlaced=0 / bluray_compat=0 / constrained_intra=0 / bframes=3 / b_pyramid=2 / b_adapt=1 / b_bias=0 / direct=1 / weightb=1 / open_gop=0 / weightp=2 / keyint=250 / keyint_min=23 / scenecut=40 / intra_refresh=0 / rc_lookahead=40 / rc=2pass / mbtree=1 / bitrate=1099 / ratetol=1.0 / qcomp=0.60 / qpmin=0 / qpmax=69 / qpstep=4 / cplxblur=20.0 / qblur=0.5 / ip_ratio=1.40 / aq=1:1.00
  36. Default                                  : Yes
  37. Forced                                   : No
  38.  
  39. Audio #1
  40. ID                                       : 2
  41. Format                                   : AAC LC SBR
  42. Format/Info                              : Advanced Audio Codec Low Complexity with Spectral Band Replication
  43. Commercial name                          : HE-AAC
  44. Format settings                          : Explicit
  45. Codec ID                                 : A_AAC-2
  46. Duration                                 : 1 h 55 min
  47. Bit rate                                 : 192 kb/s
  48. Channel(s)                               : 6 channels
  49. Channel layout                           : C L R Ls Rs LFE
  50. Sampling rate                            : 48.0 kHz
  51. Frame rate                               : 23.438 FPS (2048 SPF)
  52. Compression mode                         : Lossy
  53. Stream size                              : 158 MiB (12%)
  54. Title                                    : [www.MoviezAddiction.site] - English
  55. Language                                 : English
  56. Default                                  : No
  57. Forced                                   : No
  58.  
  59. Audio #2
  60. ID                                       : 3
  61. Format                                   : AAC LC SBR
  62. Format/Info                              : Advanced Audio Codec Low Complexity with Spectral Band Replication
  63. Commercial name                          : HE-AAC
  64. Format settings                          : Explicit
  65. Codec ID                                 : A_AAC-2
  66. Duration                                 : 1 h 55 min
  67. Bit rate                                 : 192 kb/s
  68. Channel(s)                               : 6 channels
  69. Channel layout                           : C L R Ls Rs LFE
  70. Sampling rate                            : 48.0 kHz
  71. Frame rate                               : 23.438 FPS (2048 SPF)
  72. Compression mode                         : Lossy
  73. Delay relative to video                  : 3 s 462 ms
  74. Stream size                              : 158 MiB (12%)
  75. Title                                    : [www.MoviezAddiction.site] - Hindi
  76. Language                                 : Hindi
  77. Default                                  : Yes
  78. Forced                                   : Yes
  79.  
  80. Text #1
  81. ID                                       : 4
  82. Format                                   : PGS
  83. Codec ID                                 : S_HDMV/PGS
  84. Codec ID/Info                            : Picture based subtitle format used on BDs/HD-DVDs
  85. Duration                                 : 1 h 47 min
  86. Bit rate                                 : 32.5 kb/s
  87. Count of elements                        : 3348
  88. Stream size                              : 25.0 MiB (2%)
  89. Title                                    : [www.MoviezAddiction.site] - English [PGS]
  90. Language                                 : English
  91. Default                                  : No
  92. Forced                                   : No
  93.  
  94. Text #2
  95. ID                                       : 5
  96. Format                                   : PGS
  97. Codec ID                                 : S_HDMV/PGS
  98. Codec ID/Info                            : Picture based subtitle format used on BDs/HD-DVDs
  99. Duration                                 : 1 h 46 min
  100. Bit rate                                 : 44.9 kb/s
  101. Count of elements                        : 3330
  102. Stream size                              : 34.0 MiB (3%)
  103. Title                                    : [www.MoviezAddiction.site] - English [SDH] [PGS]
  104. Language                                 : English
  105. Default                                  : No
  106. Forced                                   : No
  107.  
  108. Text #3
  109. ID                                       : 6
  110. Format                                   : PGS
  111. Codec ID                                 : S_HDMV/PGS
  112. Codec ID/Info                            : Picture based subtitle format used on BDs/HD-DVDs
  113. Duration                                 : 1 h 54 min
  114. Bit rate                                 : 24.1 kb/s
  115. Count of elements                        : 2780
  116. Stream size                              : 19.7 MiB (2%)
  117. Title                                    : [www.MoviezAddiction.site] - Hindi [PGS]
  118. Language                                 : Hindi
  119. Default                                  : Yes
  120. Forced                                   : Yes
  121.  
  122. Menu
  123. 00:00:00.000                             : en:Chapter 1
  124. 00:04:17.257                             : en:Chapter 2
  125. 00:10:57.448                             : en:Chapter 3
  126. 00:16:42.877                             : en:Chapter 4
  127. 00:22:26.971                             : en:Chapter 5
  128. 00:27:34.820                             : en:Chapter 6
  129. 00:35:10.775                             : en:Chapter 7
  130. 00:41:09.217                             : en:Chapter 8
  131. 00:45:59.256                             : en:Chapter 9
  132. 00:51:35.634                             : en:Chapter 10
  133. 01:00:35.924                             : en:Chapter 11
  134. 01:03:30.974                             : en:Chapter 12
  135. 01:08:07.250                             : en:Chapter 13
  136. 01:13:38.706                             : en:Chapter 14
  137. 01:17:14.713                             : en:Chapter 15
  138. 01:25:13.525                             : en:Chapter 16
  139. 01:30:48.485                             : en:Chapter 17
  140. 01:39:34.719                             : en:Chapter 18
  141. 01:43:31.372                             : en:Chapter 19
  142. 01:48:50.232                             : en:Chapter 20