The text below is selected, press Ctrl+C to copy to your clipboard. (⌘+C on Mac) No line numbers will be copied.
Oldboy (2013) 1080p BluRay x265...

5th November 2022 02:56:51 PM | Views: 12
  1. Format                                   : Matroska
  2. Format version                           : Version 4
  3. File size                                : 2.35 GiB
  4. Duration                                 : 1 h 43 min
  5. Overall bit rate                         : 3 237 kb/s
  6. Movie name                               : Oldboy (2013) 1080p BluRay x265 10bit HEVC English DTS 5.1 ESub 2.34GB [MoviezAddiction.life]
  7. Encoded date                             : UTC 2022-11-05 01:03:08
  8. Writing application                      : mkvmerge v71.1.0 ('Fortitude') 64-bit
  9. Writing library                          : libebml v1.4.4 + libmatroska v1.7.1
  10.  
  11. Video
  12. ID                                       : 1
  13. Format                                   : HEVC
  14. Format/Info                              : High Efficiency Video Coding
  15. Format profile                           : Main [email protected]@Main
  16. Codec ID                                 : V_MPEGH/ISO/HEVC
  17. Duration                                 : 1 h 43 min
  18. Bit rate                                 : 1 700 kb/s
  19. Width                                    : 1 920 pixels
  20. Height                                   : 800 pixels
  21. Display aspect ratio                     : 2.40:1
  22. Frame rate mode                          : Variable
  23. Frame rate                               : 23.976 (24000/1001) FPS
  24. Color space                              : YUV
  25. Chroma subsampling                       : 4:2:0
  26. Bit depth                                : 10 bits
  27. Bits/(Pixel*Frame)                       : 0.046
  28. Stream size                              : 1.23 GiB (53%)
  29. Default                                  : Yes
  30. Forced                                   : No
  31.  
  32. Audio
  33. ID                                       : 2
  34. Format                                   : DTS
  35. Format/Info                              : Digital Theater Systems
  36. Codec ID                                 : A_DTS
  37. Duration                                 : 1 h 43 min
  38. Bit rate mode                            : Constant
  39. Bit rate                                 : 1 509 kb/s
  40. Channel(s)                               : 6 channels
  41. Channel layout                           : C L R Ls Rs LFE
  42. Sampling rate                            : 48.0 kHz
  43. Frame rate                               : 93.750 FPS (512 SPF)
  44. Bit depth                                : 24 bits
  45. Compression mode                         : Lossy
  46. Stream size                              : 1.09 GiB (47%)
  47. Title                                    : English
  48. Language                                 : English
  49. Default                                  : Yes
  50. Forced                                   : No
  51.  
  52. Text
  53. ID                                       : 3
  54. Format                                   : PGS
  55. Codec ID                                 : S_HDMV/PGS
  56. Codec ID/Info                            : Picture based subtitle format used on BDs/HD-DVDs
  57. Duration                                 : 1 h 37 min
  58. Bit rate                                 : 26.7 kb/s
  59. Frame rate                               : 0.359 FPS
  60. Count of elements                        : 2098
  61. Stream size                              : 18.6 MiB (1%)
  62. Title                                    : English [PGS]
  63. Language                                 : English
  64. Default                                  : Yes
  65. Forced                                   : No
  66.  
  67. Menu
  68. 00:00:00.000                             : en:Chapter 1
  69. 00:04:45.118                             : en:Chapter 2
  70. 00:10:13.988                             : en:Chapter 3
  71. 00:16:15.600                             : en:Chapter 4
  72. 00:22:18.712                             : en:Chapter 5
  73. 00:30:30.162                             : en:Chapter 6
  74. 00:34:31.111                             : en:Chapter 7
  75. 00:43:42.370                             : en:Chapter 8
  76. 00:52:15.424                             : en:Chapter 9
  77. 00:56:28.677                             : en:Chapter 10
  78. 01:04:09.512                             : en:Chapter 11
  79. 01:10:00.488                             : en:Chapter 12
  80. 01:17:15.047                             : en:Chapter 13
  81. 01:22:37.411                             : en:Chapter 14
  82. 01:29:46.881                             : en:Chapter 15
  83. 01:37:15.580                             : en:Chapter 16