The text below is selected, press Ctrl+C to copy to your clipboard. (⌘+C on Mac) No line numbers will be copied.
Smile (2022) 2160p PMTP UHD...

18th November 2022 12:03:49 AM | Views: 30
  1. Format                                   : Matroska
  2. Format version                           : Version 4
  3. File size                                : 12.1 GiB
  4. Duration                                 : 1 h 57 min
  5. Overall bit rate                         : 14.8 Mb/s
  6. Movie name                               : Smile (2022) 2160p PMTP UHD WEB-DL x265 10bit HDR DV HEVC Dual Audio [Hindi DDP5.1 + English DDP5.1 Atmos] ESub 12.0GB [MoviezAddiction.life]
  7. Encoded date                             : UTC 2022-11-16 10:51:59
  8. Writing application                      : mkvmerge v72.0.0 ('Minuano (Six-eight)') 64-bit
  9. Writing library                          : libebml v1.4.4 + libmatroska v1.7.1
  10.  
  11. Video
  12. ID                                       : 1
  13. Format                                   : HEVC
  14. Format/Info                              : High Efficiency Video Coding
  15. Format profile                           : Main [email protected]@Main
  16. HDR format                               : Dolby Vision, Version 1.0, dvhe.08.06, BL+RPU, HDR10 compatible / SMPTE ST 2094 App 4, Version 1, HDR10+ Profile B compatible
  17. Codec ID                                 : V_MPEGH/ISO/HEVC
  18. Duration                                 : 1 h 55 min
  19. Bit rate                                 : 13.5 Mb/s
  20. Width                                    : 3 840 pixels
  21. Height                                   : 2 160 pixels
  22. Display aspect ratio                     : 16:9
  23. Frame rate mode                          : Constant
  24. Frame rate                               : 23.976 (24000/1001) FPS
  25. Color space                              : YUV
  26. Chroma subsampling                       : 4:2:0 (Type 2)
  27. Bit depth                                : 10 bits
  28. Bits/(Pixel*Frame)                       : 0.068
  29. Stream size                              : 10.9 GiB (91%)
  30. Default                                  : Yes
  31. Forced                                   : No
  32. Color range                              : Limited
  33. Color primaries                          : BT.2020
  34. Transfer characteristics                 : PQ
  35. Matrix coefficients                      : BT.2020 non-constant
  36. Mastering display color primaries        : Display P3
  37. Mastering display luminance              : min: 0.0001 cd/m2, max: 1000 cd/m2
  38.  
  39. Audio #1
  40. ID                                       : 2
  41. Format                                   : E-AC-3
  42. Format/Info                              : Enhanced AC-3
  43. Commercial name                          : Dolby Digital Plus
  44. Codec ID                                 : A_EAC3
  45. Duration                                 : 1 h 57 min
  46. Bit rate mode                            : Constant
  47. Bit rate                                 : 640 kb/s
  48. Channel(s)                               : 6 channels
  49. Channel layout                           : L R C LFE Ls Rs
  50. Sampling rate                            : 48.0 kHz
  51. Frame rate                               : 31.250 FPS (1536 SPF)
  52. Compression mode                         : Lossy
  53. Delay relative to video                  : -6 ms
  54. Stream size                              : 536 MiB (4%)
  55. Title                                    : Hindi
  56. Language                                 : Hindi
  57. Service kind                             : Complete Main
  58. Default                                  : Yes
  59. Forced                                   : No
  60.  
  61. Audio #2
  62. ID                                       : 3
  63. Format                                   : E-AC-3 JOC
  64. Format/Info                              : Enhanced AC-3 with Joint Object Coding
  65. Commercial name                          : Dolby Digital Plus with Dolby Atmos
  66. Codec ID                                 : A_EAC3
  67. Duration                                 : 1 h 55 min
  68. Bit rate mode                            : Constant
  69. Bit rate                                 : 768 kb/s
  70. Channel(s)                               : 6 channels
  71. Channel layout                           : L R C LFE Ls Rs
  72. Sampling rate                            : 48.0 kHz
  73. Frame rate                               : 31.250 FPS (1536 SPF)
  74. Compression mode                         : Lossy
  75. Stream size                              : 635 MiB (5%)
  76. Title                                    : English
  77. Language                                 : English
  78. Service kind                             : Complete Main
  79. Default                                  : No
  80. Forced                                   : No
  81. Complexity index                         : 16
  82. Number of dynamic objects                : 15
  83. Bed channel count                        : 1 channel
  84. Bed channel configuration                : LFE
  85.  
  86. Text
  87. ID                                       : 4
  88. Format                                   : UTF-8
  89. Codec ID                                 : S_TEXT/UTF8
  90. Codec ID/Info                            : UTF-8 Plain Text
  91. Duration                                 : 1 h 49 min
  92. Bit rate                                 : 47 b/s
  93. Frame rate                               : 0.206 FPS
  94. Count of elements                        : 1356
  95. Stream size                              : 37.8 KiB (0%)
  96. Title                                    : English [SRT]
  97. Language                                 : English
  98. Default                                  : Yes
  99. Forced                                   : No