The text below is selected, press Ctrl+C to copy to your clipboard. (⌘+C on Mac) No line numbers will be copied.
Top Gun Maverick (2022) IMAX...

14th January 2023 08:15:49 AM | Views: 8
  1. Format                                   : Matroska
  2. Format version                           : Version 4
  3. File size                                : 65.6 GiB
  4. Duration                                 : 2 h 12 min
  5. Overall bit rate mode                    : Variable
  6. Overall bit rate                         : 70.8 Mb/s
  7. Movie name                               : Top Gun Maverick (2022) IMAX 2160p UHD BluRay REMUX x265 10bit HDR DV HEVC Dual Audio [Hindi DDP5.1 + English DTS-HD MA 7.1] ESub 65.5GB [MoviezAddiction]
  8. Encoded date                             : UTC 2023-01-14 01:45:39
  9. Writing application                      : mkvmerge v72.0.0 ('Minuano (Six-eight)') 64-bit
  10. Writing library                          : libebml v1.4.4 + libmatroska v1.7.1
  11.  
  12. Video
  13. ID                                       : 1
  14. ID in the original source medium         : 4113 (0x1011)
  15. Format                                   : HEVC
  16. Format/Info                              : High Efficiency Video Coding
  17. Format profile                           : Main [email protected]@High
  18. HDR format                               : Dolby Vision, Version 1.0, dvhe.07.06, BL+EL+RPU, Blu-ray compatible / SMPTE ST 2086, HDR10 compatible
  19. Codec ID                                 : V_MPEGH/ISO/HEVC
  20. Duration                                 : 2 h 10 min
  21. Bit rate                                 : 67.2 Mb/s
  22. Width                                    : 3 840 pixels
  23. Height                                   : 2 160 pixels
  24. Display aspect ratio                     : 16:9
  25. Frame rate mode                          : Constant
  26. Frame rate                               : 23.976 (24000/1001) FPS
  27. Color space                              : YUV
  28. Chroma subsampling                       : 4:2:0 (Type 2)
  29. Bit depth                                : 10 bits
  30. Bits/(Pixel*Frame)                       : 0.338
  31. Stream size                              : 61.1 GiB (93%)
  32. Default                                  : Yes
  33. Forced                                   : No
  34. Color range                              : Limited
  35. Color primaries                          : BT.2020
  36. Transfer characteristics                 : PQ
  37. Matrix coefficients                      : BT.2020 non-constant
  38. Mastering display color primaries        : Display P3
  39. Mastering display luminance              : min: 0.0001 cd/m2, max: 1000 cd/m2
  40. Maximum Content Light Level              : 617 cd/m2
  41. Maximum Frame-Average Light Level        : 496 cd/m2
  42. Original source medium                   : Blu-ray
  43.  
  44. Audio #1
  45. ID                                       : 2
  46. Format                                   : E-AC-3
  47. Format/Info                              : Enhanced AC-3
  48. Commercial name                          : Dolby Digital Plus
  49. Codec ID                                 : A_EAC3
  50. Duration                                 : 2 h 12 min
  51. Bit rate mode                            : Constant
  52. Bit rate                                 : 640 kb/s
  53. Channel(s)                               : 6 channels
  54. Channel layout                           : L R C LFE Ls Rs
  55. Sampling rate                            : 48.0 kHz
  56. Frame rate                               : 31.250 FPS (1536 SPF)
  57. Compression mode                         : Lossy
  58. Stream size                              : 607 MiB (1%)
  59. Title                                    : Hindi
  60. Language                                 : Hindi
  61. Service kind                             : Complete Main
  62. Default                                  : Yes
  63. Forced                                   : No
  64.  
  65. Audio #2
  66. ID                                       : 3
  67. Format                                   : DTS XLL
  68. Format/Info                              : Digital Theater Systems
  69. Commercial name                          : DTS-HD Master Audio
  70. Codec ID                                 : A_DTS
  71. Duration                                 : 2 h 10 min
  72. Bit rate mode                            : Variable
  73. Bit rate                                 : 4 193 kb/s
  74. Channel(s)                               : 8 channels
  75. Channel layout                           : C L R LFE Lb Rb Lss Rss
  76. Sampling rate                            : 48.0 kHz
  77. Frame rate                               : 93.750 FPS (512 SPF)
  78. Bit depth                                : 24 bits
  79. Compression mode                         : Lossless
  80. Stream size                              : 3.81 GiB (6%)
  81. Title                                    : English
  82. Language                                 : English
  83. Default                                  : No
  84. Forced                                   : No
  85.  
  86. Text
  87. ID                                       : 4
  88. ID in the original source medium         : 4768 (0x12A0)
  89. Format                                   : PGS
  90. Codec ID                                 : S_HDMV/PGS
  91. Codec ID/Info                            : Picture based subtitle format used on BDs/HD-DVDs
  92. Duration                                 : 1 h 57 min
  93. Bit rate                                 : 36.9 kb/s
  94. Frame rate                               : 0.413 FPS
  95. Count of elements                        : 2906
  96. Stream size                              : 31.0 MiB (0%)
  97. Title                                    : English [PGS]
  98. Language                                 : English
  99. Default                                  : Yes
  100. Forced                                   : No
  101. Original source medium                   : Blu-ray
  102.  
  103. Menu
  104. 00:00:00.000                             : en:Chapter 01
  105. 00:03:05.768                             : en:Chapter 02
  106. 00:13:39.819                             : en:Chapter 03
  107. 00:21:23.115                             : en:Chapter 04
  108. 00:32:39.832                             : en:Chapter 05
  109. 00:44:47.685                             : en:Chapter 06
  110. 00:53:55.190                             : en:Chapter 07
  111. 01:00:09.814                             : en:Chapter 08
  112. 01:07:39.305                             : en:Chapter 09
  113. 01:15:46.166                             : en:Chapter 10
  114. 01:23:38.179                             : en:Chapter 11
  115. 01:31:49.128                             : en:Chapter 12
  116. 01:41:32.753                             : en:Chapter 13
  117. 01:48:48.188                             : en:Chapter 14
  118. 01:57:22.410                             : en:Chapter 15
  119. 02:03:13.302                             : en:Chapter 16