The text below is selected, press Ctrl+C to copy to your clipboard. (⌘+C on Mac) No line numbers will be copied.
Eternals (2021) IMAX 720p

13th January 2022 02:40:16 AM | Views: 59
  1. Format                                   : Matroska
  2. Format version                           : Version 4
  3. File size                                : 1.62 GiB
  4. Duration                                 : 2 h 35 min
  5. Overall bit rate                         : 1 485 kb/s
  6. Movie name                               : Eternals (2021) IMAX 720p WEB-DL x264 Dual Audio [Hindi DDP5.1 + English DD5.1] MSubs 1.61GB [www.MoviezAddiction.art]
  7. Encoded date                             : UTC 2022-01-12 14:47:53
  8. Writing application                      : mkvmerge v47.0.0 ('Black Flag') 64-bit
  9. Writing library                          : libebml v1.3.10 + libmatroska v1.5.2
  10.  
  11. Video
  12. ID                                       : 1
  13. Format                                   : AVC
  14. Format/Info                              : Advanced Video Codec
  15. Format profile                           : [email protected]
  16. Format settings                          : CABAC / 4 Ref Frames
  17. Format settings, CABAC                   : Yes
  18. Format settings, Reference frames        : 4 frames
  19. Codec ID                                 : V_MPEG4/ISO/AVC
  20. Duration                                 : 2 h 35 min
  21. Bit rate                                 : 1 099 kb/s
  22. Width                                    : 1 280 pixels
  23. Height                                   : 674 pixels
  24. Display aspect ratio                     : 1.896
  25. Original display aspect ratio            : 1.897
  26. Frame rate mode                          : Variable
  27. Frame rate                               : 23.976 (24000/1001) FPS
  28. Color space                              : YUV
  29. Chroma subsampling                       : 4:2:0
  30. Bit depth                                : 8 bits
  31. Scan type                                : Progressive
  32. Bits/(Pixel*Frame)                       : 0.053
  33. Stream size                              : 1.20 GiB (74%)
  34. Title                                    : [www.MoviezAddiction.art]
  35. Default                                  : Yes
  36. Forced                                   : No
  37. Color range                              : Limited
  38. Color primaries                          : BT.709
  39. Transfer characteristics                 : BT.709
  40. Matrix coefficients                      : BT.709
  41.  
  42. Audio #1
  43. ID                                       : 2
  44. Format                                   : E-AC-3
  45. Format/Info                              : Enhanced AC-3
  46. Commercial name                          : Dolby Digital Plus
  47. Codec ID                                 : A_EAC3
  48. Duration                                 : 2 h 35 min
  49. Bit rate mode                            : Constant
  50. Bit rate                                 : 192 kb/s
  51. Channel(s)                               : 6 channels
  52. Channel layout                           : L R C LFE Ls Rs
  53. Sampling rate                            : 48.0 kHz
  54. Frame rate                               : 31.250 FPS (1536 SPF)
  55. Compression mode                         : Lossy
  56. Stream size                              : 214 MiB (13%)
  57. Title                                    : [www.MoviezAddiction.art] - Hindi
  58. Language                                 : Hindi
  59. Service kind                             : Complete Main
  60. Default                                  : Yes
  61. Forced                                   : No
  62.  
  63. Audio #2
  64. ID                                       : 3
  65. Format                                   : AAC LC SBR
  66. Format/Info                              : Advanced Audio Codec Low Complexity with Spectral Band Replication
  67. Commercial name                          : HE-AAC
  68. Format settings                          : Explicit
  69. Codec ID                                 : A_AAC-2
  70. Duration                                 : 2 h 35 min
  71. Bit rate                                 : 192 kb/s
  72. Channel(s)                               : 6 channels
  73. Channel layout                           : C L R Ls Rs LFE
  74. Sampling rate                            : 48.0 kHz
  75. Frame rate                               : 23.438 FPS (2048 SPF)
  76. Compression mode                         : Lossy
  77. Stream size                              : 213 MiB (13%)
  78. Title                                    : [www.MoviezAddiction.art] - English
  79. Language                                 : English
  80. Default                                  : No
  81. Forced                                   : No
  82.  
  83. Text #1
  84. ID                                       : 4
  85. Format                                   : UTF-8
  86. Codec ID                                 : S_TEXT/UTF8
  87. Codec ID/Info                            : UTF-8 Plain Text
  88. Duration                                 : 2 h 33 min
  89. Bit rate                                 : 39 b/s
  90. Count of elements                        : 1708
  91. Stream size                              : 44.4 KiB (0%)
  92. Title                                    : [www.MoviezAddiction.art] - English [SRT]
  93. Language                                 : English
  94. Default                                  : Yes
  95. Forced                                   : No
  96.  
  97. Text #2
  98. ID                                       : 5
  99. Format                                   : UTF-8
  100. Codec ID                                 : S_TEXT/UTF8
  101. Codec ID/Info                            : UTF-8 Plain Text
  102. Duration                                 : 2 h 33 min
  103. Bit rate                                 : 49 b/s
  104. Count of elements                        : 2165
  105. Stream size                              : 56.0 KiB (0%)
  106. Title                                    : [www.MoviezAddiction.art] - English [SDH] [SRT]
  107. Language                                 : English
  108. Default                                  : No
  109. Forced                                   : No