The text below is selected, press Ctrl+C to copy to your clipboard. (⌘+C on Mac) No line numbers will be copied.
The A-Team (2010) EXTENDED 1080p...

22nd January 2023 05:01:34 AM | Views: 7
  1. Format                                   : Matroska
  2. Format version                           : Version 4
  3. File size                                : 21.1 GiB
  4. Duration                                 : 2 h 13 min
  5. Overall bit rate mode                    : Variable
  6. Overall bit rate                         : 22.6 Mb/s
  7. Movie name                               : The A-Team (2010) EXTENDED 1080p BluRay REMUX x264 Dual Audio [Hindi BD5.1 + English DTS-HD MA 5.1] ESub 21.0GB [MoviezAddiction]
  8. Encoded date                             : UTC 2023-01-21 16:23:18
  9. Writing application                      : mkvmerge v72.0.0 ('Minuano (Six-eight)') 64-bit
  10. Writing library                          : libebml v1.4.4 + libmatroska v1.7.1
  11.  
  12. Video
  13. ID                                       : 1
  14. Format                                   : AVC
  15. Format/Info                              : Advanced Video Codec
  16. Format profile                           : [email protected]
  17. Format settings                          : CABAC / 4 Ref Frames
  18. Format settings, CABAC                   : Yes
  19. Format settings, Reference frames        : 4 frames
  20. Codec ID                                 : V_MPEG4/ISO/AVC
  21. Duration                                 : 2 h 13 min
  22. Bit rate mode                            : Variable
  23. Bit rate                                 : 18.0 Mb/s
  24. Maximum bit rate                         : 35.0 Mb/s
  25. Width                                    : 1 920 pixels
  26. Height                                   : 1 080 pixels
  27. Display aspect ratio                     : 16:9
  28. Frame rate mode                          : Constant
  29. Frame rate                               : 23.976 (24000/1001) FPS
  30. Color space                              : YUV
  31. Chroma subsampling                       : 4:2:0
  32. Bit depth                                : 8 bits
  33. Scan type                                : Progressive
  34. Bits/(Pixel*Frame)                       : 0.362
  35. Stream size                              : 16.8 GiB (80%)
  36. Default                                  : Yes
  37. Forced                                   : No
  38. Color range                              : Limited
  39. Color primaries                          : BT.709
  40. Transfer characteristics                 : BT.709
  41. Matrix coefficients                      : BT.709
  42.  
  43. Audio #1
  44. ID                                       : 2
  45. Format                                   : AC-3
  46. Format/Info                              : Audio Coding 3
  47. Commercial name                          : Dolby Digital
  48. Codec ID                                 : A_AC3
  49. Duration                                 : 2 h 13 min
  50. Bit rate mode                            : Constant
  51. Bit rate                                 : 448 kb/s
  52. Channel(s)                               : 6 channels
  53. Channel layout                           : L R C LFE Ls Rs
  54. Sampling rate                            : 48.0 kHz
  55. Frame rate                               : 31.250 FPS (1536 SPF)
  56. Compression mode                         : Lossy
  57. Delay relative to video                  : -26 ms
  58. Stream size                              : 428 MiB (2%)
  59. Title                                    : Hindi
  60. Language                                 : Hindi
  61. Service kind                             : Complete Main
  62. Default                                  : Yes
  63. Forced                                   : No
  64.  
  65. Audio #2
  66. ID                                       : 3
  67. Format                                   : DTS XLL
  68. Format/Info                              : Digital Theater Systems
  69. Commercial name                          : DTS-HD Master Audio
  70. Codec ID                                 : A_DTS
  71. Duration                                 : 2 h 13 min
  72. Bit rate mode                            : Variable
  73. Bit rate                                 : 4 105 kb/s
  74. Channel(s)                               : 6 channels
  75. Channel layout                           : C L R Ls Rs LFE
  76. Sampling rate                            : 48.0 kHz
  77. Frame rate                               : 93.750 FPS (512 SPF)
  78. Bit depth                                : 24 bits
  79. Compression mode                         : Lossless
  80. Stream size                              : 3.83 GiB (18%)
  81. Title                                    : English
  82. Language                                 : English
  83. Default                                  : No
  84. Forced                                   : No
  85.  
  86. Text
  87. ID                                       : 4
  88. Format                                   : PGS
  89. Codec ID                                 : S_HDMV/PGS
  90. Codec ID/Info                            : Picture based subtitle format used on BDs/HD-DVDs
  91. Duration                                 : 2 h 12 min
  92. Bit rate                                 : 45.7 kb/s
  93. Frame rate                               : 0.496 FPS
  94. Count of elements                        : 3948
  95. Stream size                              : 43.3 MiB (0%)
  96. Title                                    : English [PGS]
  97. Language                                 : English
  98. Default                                  : Yes
  99. Forced                                   : No
  100.  
  101. Menu
  102. 00:00:00.026                             : 第 01 章
  103. 00:05:17.426                             : 第 02 章
  104. 00:13:31.295                             : 第 03 章
  105. 00:21:10.795                             : 第 04 章
  106. 00:26:32.367                             : 第 05 章
  107. 00:37:42.828                             : 第 06 章
  108. 00:45:23.580                             : 第 07 章
  109. 00:49:30.285                             : 第 08 章
  110. 00:56:53.895                             : 第 09 章
  111. 01:02:40.574                             : 第 10 章
  112. 01:09:43.080                             : 第 11 章
  113. 01:15:19.666                             : 第 12 章
  114. 01:23:06.382                             : 第 13 章
  115. 01:28:54.605                             : 第 14 章
  116. 01:35:56.860                             : 第 15 章
  117. 01:38:35.977                             : 第 16 章
  118. 01:43:12.545                             : 第 17 章
  119. 01:49:42.852                             : 第 18 章
  120. 01:57:19.600                             : 第 19 章
  121. 02:07:00.680                             : 第 20 章