The text below is selected, press Ctrl+C to copy to your clipboard. (⌘+C on Mac) No line numbers will be copied.
The Wolf Witch (2020) 1080p...

24th January 2023 06:22:23 AM | Views: 7
  1. Format                                   : Matroska
  2. Format version                           : Version 4
  3. File size                                : 1.36 GiB
  4. Duration                                 : 1 h 25 min
  5. Overall bit rate mode                    : Variable
  6. Overall bit rate                         : 2 277 kb/s
  7. Movie name                               : The Wolf Witch (2020) 1080p BMS WEB-DL x264 Hindi DD2.0 ESub 1.35GB [MoviezAddiction]
  8. Encoded date                             : UTC 2023-01-23 14:49:32
  9. Writing application                      : mkvmerge v72.0.0 ('Minuano (Six-eight)') 64-bit
  10. Writing library                          : libebml v1.4.4 + libmatroska v1.7.1
  11.  
  12. Video
  13. ID                                       : 1
  14. Format                                   : AVC
  15. Format/Info                              : Advanced Video Codec
  16. Format profile                           : [email protected]
  17. Format settings                          : CABAC / 3 Ref Frames
  18. Format settings, CABAC                   : Yes
  19. Format settings, Reference frames        : 3 frames
  20. Format settings, GOP                     : M=3, N=50
  21. Codec ID                                 : V_MPEG4/ISO/AVC
  22. Duration                                 : 1 h 25 min
  23. Bit rate mode                            : Variable
  24. Bit rate                                 : 2 019 kb/s
  25. Maximum bit rate                         : 3 500 kb/s
  26. Width                                    : 1 920 pixels
  27. Height                                   : 1 080 pixels
  28. Display aspect ratio                     : 16:9
  29. Frame rate mode                          : Constant
  30. Frame rate                               : 25.000 FPS
  31. Color space                              : YUV
  32. Chroma subsampling                       : 4:2:0
  33. Bit depth                                : 8 bits
  34. Scan type                                : Progressive
  35. Bits/(Pixel*Frame)                       : 0.039
  36. Stream size                              : 1.20 GiB (89%)
  37. Default                                  : Yes
  38. Forced                                   : No
  39.  
  40. Audio
  41. ID                                       : 2
  42. Format                                   : AAC LC
  43. Format/Info                              : Advanced Audio Codec Low Complexity
  44. Codec ID                                 : A_AAC-2
  45. Duration                                 : 1 h 25 min
  46. Bit rate                                 : 256 kb/s
  47. Channel(s)                               : 2 channels
  48. Channel layout                           : L R
  49. Sampling rate                            : 48.0 kHz
  50. Frame rate                               : 46.875 FPS (1024 SPF)
  51. Compression mode                         : Lossy
  52. Stream size                              : 156 MiB (11%)
  53. Title                                    : Hindi
  54. Language                                 : Hindi
  55. Default                                  : Yes
  56. Forced                                   : No
  57.  
  58. Text
  59. ID                                       : 3
  60. Format                                   : UTF-8
  61. Codec ID                                 : S_TEXT/UTF8
  62. Codec ID/Info                            : UTF-8 Plain Text
  63. Duration                                 : 1 h 21 min
  64. Bit rate                                 : 35 b/s
  65. Count of elements                        : 1088
  66. Stream size                              : 21.1 KiB (0%)
  67. Title                                    : English [SRT]
  68. Language                                 : English
  69. Default                                  : Yes
  70. Forced                                   : No