The text below is selected, press Ctrl+C to copy to your clipboard. (⌘+C on Mac) No line numbers will be copied.
Crazy Stupid Love (2011) UNRATED...

16th September 2020 07:58:52 AM | Views: 20
  1. Format                                   : Matroska
  2. Format version                           : Version 4
  3. File size                                : 977 MiB
  4. Duration                                 : 1 h 58 min
  5. Overall bit rate                         : 1 156 kb/s
  6. Movie name                               : Crazy Stupid Love (2011) UNRATED 720p BluRay x265 10bit HEVC Dual Audio [Hindi VCD DD2.0 + English BD5.1] ESub 976MB [www.MoviezAddiction.space]
  7. Encoded date                             : UTC 2020-09-16 03:55:48
  8. Writing application                      : mkvmerge v48.0.0 ('Fortress Around Your Heart') 64-bit
  9. Writing library                          : libebml v1.4.0 + libmatroska v1.6.0
  10.  
  11. Video
  12. ID                                       : 1
  13. Format                                   : HEVC
  14. Format/Info                              : High Efficiency Video Coding
  15. Format profile                           : Main [email protected]@Main
  16. Codec ID                                 : V_MPEGH/ISO/HEVC
  17. Duration                                 : 1 h 58 min
  18. Bit rate                                 : 701 kb/s
  19. Width                                    : 1 280 pixels
  20. Height                                   : 536 pixels
  21. Display aspect ratio                     : 2.40:1
  22. Frame rate mode                          : Constant
  23. Frame rate                               : 23.976 (24000/1001) FPS
  24. Color space                              : YUV
  25. Chroma subsampling                       : 4:2:0
  26. Bit depth                                : 10 bits
  27. Bits/(Pixel*Frame)                       : 0.043
  28. Stream size                              : 592 MiB (61%)
  29. Title                                    : [www.MoviezAddiction.space]
  30. Default                                  : Yes
  31. Forced                                   : No
  32.  
  33. Audio #1
  34. ID                                       : 2
  35. Format                                   : AAC LC SBR
  36. Format/Info                              : Advanced Audio Codec Low Complexity with Spectral Band Replication
  37. Commercial name                          : HE-AAC
  38. Format settings                          : Explicit
  39. Codec ID                                 : A_AAC-2
  40. Duration                                 : 1 h 58 min
  41. Bit rate                                 : 192 kb/s
  42. Channel(s)                               : 6 channels
  43. Channel layout                           : C L R Ls Rs LFE
  44. Sampling rate                            : 48.0 kHz
  45. Frame rate                               : 23.438 FPS (2048 SPF)
  46. Compression mode                         : Lossy
  47. Stream size                              : 161 MiB (16%)
  48. Title                                    : [www.MoviezAddiction.space] - English
  49. Language                                 : English
  50. Default                                  : No
  51. Forced                                   : No
  52.  
  53. Audio #2
  54. ID                                       : 3
  55. Format                                   : AC-3
  56. Format/Info                              : Audio Coding 3
  57. Commercial name                          : Dolby Digital
  58. Codec ID                                 : A_AC3
  59. Duration                                 : 1 h 58 min
  60. Bit rate mode                            : Constant
  61. Bit rate                                 : 224 kb/s
  62. Channel(s)                               : 2 channels
  63. Channel layout                           : L R
  64. Sampling rate                            : 48.0 kHz
  65. Frame rate                               : 31.250 FPS (1536 SPF)
  66. Compression mode                         : Lossy
  67. Stream size                              : 189 MiB (19%)
  68. Title                                    : [www.MoviezAddiction.space] - Hindi
  69. Language                                 : Hindi
  70. Service kind                             : Complete Main
  71. Default                                  : Yes
  72. Forced                                   : Yes
  73.  
  74. Text
  75. ID                                       : 4
  76. Format                                   : PGS
  77. Codec ID                                 : S_HDMV/PGS
  78. Codec ID/Info                            : Picture based subtitle format used on BDs/HD-DVDs
  79. Duration                                 : 1 h 57 min
  80. Bit rate                                 : 38.6 kb/s
  81. Count of elements                        : 3598
  82. Stream size                              : 32.5 MiB (3%)
  83. Title                                    : [www.MoviezAddiction.space] - English [PGS]
  84. Language                                 : English
  85. Default                                  : Yes
  86. Forced                                   : Yes
  87.  
  88. Menu
  89. 00:00:00.000                             : en:00:00:00.000
  90. 00:08:25.714                             : en:00:08:25.714
  91. 00:20:56.422                             : en:00:20:56.422
  92. 00:28:40.552                             : en:00:28:40.552
  93. 00:38:32.560                             : en:00:38:32.560
  94. 00:51:33.674                             : en:00:51:33.674
  95. 01:02:41.007                             : en:01:02:41.007
  96. 01:11:00.548                             : en:01:11:00.548
  97. 01:21:12.117                             : en:01:21:12.117
  98. 01:28:07.199                             : en:01:28:07.199
  99. 01:40:51.963                             : en:01:40:51.963
  100. 01:48:00.808                             : en:01:48:00.808
  101. 01:52:20.525                             : en:01:52:20.525