The text below is selected, press Ctrl+C to copy to your clipboard. (⌘+C on Mac) No line numbers will be copied.
Back to the Titanic (2020)...

15th September 2020 11:51:08 AM | Views: 27
  1. Format                                   : Matroska
  2. Format version                           : Version 4
  3. File size                                : 428 MiB
  4. Duration                                 : 44 min 3 s
  5. Overall bit rate                         : 1 359 kb/s
  6. Movie name                               : Back to the Titanic (2020) 720p WEB-DL x264 Dual Audio [Hindi DD2.0 + English DD2.0] ESub 428MB [www.MoviezAddiction.space]
  7. Encoded date                             : UTC 2020-09-13 16:46:11
  8. Writing application                      : mkvmerge v48.0.0 ('Fortress Around Your Heart') 64-bit
  9. Writing library                          : libebml v1.4.0 + libmatroska v1.6.0
  10.  
  11. Video
  12. ID                                       : 1
  13. Format                                   : AVC
  14. Format/Info                              : Advanced Video Codec
  15. Format profile                           : [email protected]
  16. Format settings                          : CABAC / 4 Ref Frames
  17. Format settings, CABAC                   : Yes
  18. Format settings, Reference frames        : 4 frames
  19. Codec ID                                 : V_MPEG4/ISO/AVC
  20. Duration                                 : 44 min 3 s
  21. Bit rate                                 : 1 099 kb/s
  22. Width                                    : 1 280 pixels
  23. Height                                   : 720 pixels
  24. Display aspect ratio                     : 16:9
  25. Frame rate mode                          : Constant
  26. Frame rate                               : 25.000 FPS
  27. Color space                              : YUV
  28. Chroma subsampling                       : 4:2:0
  29. Bit depth                                : 8 bits
  30. Scan type                                : Progressive
  31. Bits/(Pixel*Frame)                       : 0.048
  32. Stream size                              : 346 MiB (81%)
  33. Title                                    : [www.MoviezAddiction.space]
  34. Writing library                          : x264 core 160 r3009 4c9b076
  35. Encoding settings                        : cabac=1 / ref=3 / deblock=1:0:0 / analyse=0x1:0x111 / me=hex / subme=7 / psy=1 / psy_rd=1.00:0.00 / mixed_ref=1 / me_range=16 / chroma_me=1 / trellis=1 / 8x8dct=0 / cqm=0 / deadzone=21,11 / fast_pskip=1 / chroma_qp_offset=-2 / threads=22 / lookahead_threads=3 / sliced_threads=0 / nr=0 / decimate=1 / interlaced=0 / bluray_compat=0 / constrained_intra=0 / bframes=3 / b_pyramid=2 / b_adapt=1 / b_bias=0 / direct=1 / weightb=1 / open_gop=0 / weightp=2 / keyint=250 / keyint_min=25 / scenecut=40 / intra_refresh=0 / rc_lookahead=40 / rc=2pass / mbtree=1 / bitrate=1099 / ratetol=1.0 / qcomp=0.60 / qpmin=0 / qpmax=69 / qpstep=4 / cplxblur=20.0 / qblur=0.5 / ip_ratio=1.40 / aq=1:1.00
  36. Default                                  : Yes
  37. Forced                                   : No
  38. Color range                              : Limited
  39. Transfer characteristics                 : BT.709
  40.  
  41. Audio #1
  42. ID                                       : 2
  43. Format                                   : AAC LC
  44. Format/Info                              : Advanced Audio Codec Low Complexity
  45. Codec ID                                 : A_AAC-2
  46. Duration                                 : 44 min 3 s
  47. Bit rate                                 : 128 kb/s
  48. Channel(s)                               : 2 channels
  49. Channel layout                           : L R
  50. Sampling rate                            : 48.0 kHz
  51. Frame rate                               : 46.875 FPS (1024 SPF)
  52. Compression mode                         : Lossy
  53. Stream size                              : 40.5 MiB (9%)
  54. Title                                    : [www.MoviezAddiction.space] - English
  55. Language                                 : English
  56. Default                                  : No
  57. Forced                                   : No
  58.  
  59. Audio #2
  60. ID                                       : 3
  61. Format                                   : AAC LC
  62. Format/Info                              : Advanced Audio Codec Low Complexity
  63. Codec ID                                 : A_AAC-2
  64. Duration                                 : 44 min 3 s
  65. Bit rate                                 : 128 kb/s
  66. Channel(s)                               : 2 channels
  67. Channel layout                           : L R
  68. Sampling rate                            : 48.0 kHz
  69. Frame rate                               : 46.875 FPS (1024 SPF)
  70. Compression mode                         : Lossy
  71. Stream size                              : 40.5 MiB (9%)
  72. Title                                    : [www.MoviezAddiction.space] - Hindi
  73. Language                                 : Hindi
  74. Default                                  : Yes
  75. Forced                                   : Yes
  76.  
  77. Text
  78. ID                                       : 4
  79. Format                                   : UTF-8
  80. Codec ID                                 : S_TEXT/UTF8
  81. Codec ID/Info                            : UTF-8 Plain Text
  82. Duration                                 : 43 min 46 s
  83. Bit rate                                 : 85 b/s
  84. Count of elements                        : 741
  85. Stream size                              : 27.4 KiB (0%)
  86. Title                                    : [www.MoviezAddiction.space] - English [SRT]
  87. Language                                 : English
  88. Default                                  : Yes
  89. Forced                                   : Yes