The text below is selected, press Ctrl+C to copy to your clipboard. (⌘+C on Mac) No line numbers will be copied.
Sing (2016) 1080p Bluray x264

15th September 2020 06:03:25 PM | Views: 19
  1. Format                                   : Matroska
  2. Format version                           : Version 4
  3. File size                                : 7.24 GiB
  4. Duration                                 : 1 h 48 min
  5. Overall bit rate mode                    : Variable
  6. Overall bit rate                         : 9 593 kb/s
  7. Movie name                               : Sing (2016) 1080p Bluray x264 Dual Audio [ Hindi DDP5.1 + English DA7.1 ] ESub [www.MoviezAddiction.space]
  8. Encoded date                             : UTC 2020-09-15 15:29:57
  9. Writing application                      : mkvmerge v48.0.0 ('Fortress Around Your Heart') 64-bit
  10. Writing library                          : libebml v1.4.0 + libmatroska v1.6.0
  11.  
  12. Video
  13. ID                                       : 1
  14. Format                                   : AVC
  15. Format/Info                              : Advanced Video Codec
  16. Format profile                           : [email protected]
  17. Format settings                          : CABAC / 5 Ref Frames
  18. Format settings, CABAC                   : Yes
  19. Format settings, Reference frames        : 5 frames
  20. Codec ID                                 : V_MPEG4/ISO/AVC
  21. Duration                                 : 1 h 47 min
  22. Bit rate                                 : 4 000 kb/s
  23. Width                                    : 1 920 pixels
  24. Height                                   : 1 040 pixels
  25. Display aspect ratio                     : 1.85:1
  26. Frame rate mode                          : Constant
  27. Frame rate                               : 23.976 (24000/1001) FPS
  28. Color space                              : YUV
  29. Chroma subsampling                       : 4:2:0
  30. Bit depth                                : 8 bits
  31. Scan type                                : Progressive
  32. Bits/(Pixel*Frame)                       : 0.084
  33. Stream size                              : 3.01 GiB (42%)
  34. Title                                    : [www.MoviezAddiction.space]
  35. Writing library                          : x264 core 160 r3000 33f9e14
  36. Encoding settings                        : cabac=1 / ref=5 / deblock=1:0:0 / analyse=0x3:0x113 / me=hex / subme=8 / psy=1 / psy_rd=1.00:0.00 / mixed_ref=1 / me_range=16 / chroma_me=1 / trellis=2 / 8x8dct=1 / cqm=0 / deadzone=21,11 / fast_pskip=1 / chroma_qp_offset=-2 / threads=12 / lookahead_threads=2 / sliced_threads=0 / nr=0 / decimate=1 / interlaced=0 / bluray_compat=0 / constrained_intra=0 / bframes=3 / b_pyramid=2 / b_adapt=1 / b_bias=0 / direct=3 / weightb=1 / open_gop=0 / weightp=2 / keyint=250 / keyint_min=23 / scenecut=40 / intra_refresh=0 / rc_lookahead=50 / rc=2pass / mbtree=1 / bitrate=4000 / ratetol=1.0 / qcomp=0.60 / qpmin=0 / qpmax=69 / qpstep=4 / cplxblur=20.0 / qblur=0.5 / ip_ratio=1.40 / aq=1:1.00
  37. Default                                  : Yes
  38. Forced                                   : No
  39.  
  40. Audio #1
  41. ID                                       : 3
  42. Format                                   : E-AC-3
  43. Format/Info                              : Enhanced AC-3
  44. Commercial name                          : Dolby Digital Plus
  45. Codec ID                                 : A_EAC3
  46. Duration                                 : 1 h 48 min
  47. Bit rate mode                            : Constant
  48. Bit rate                                 : 640 kb/s
  49. Channel(s)                               : 6 channels
  50. Channel layout                           : L R C LFE Ls Rs
  51. Sampling rate                            : 48.0 kHz
  52. Frame rate                               : 31.250 FPS (1536 SPF)
  53. Compression mode                         : Lossy
  54. Delay relative to video                  : 40 ms
  55. Stream size                              : 495 MiB (7%)
  56. Title                                    : [www.MoviezAddiction.space]
  57. Language                                 : Hindi
  58. Service kind                             : Complete Main
  59. Default                                  : No
  60. Forced                                   : No
  61.  
  62. Audio #2
  63. ID                                       : 4
  64. Format                                   : MLP FBA 16-ch
  65. Format/Info                              : Meridian Lossless Packing FBA with 16-channel presentation
  66. Commercial name                          : Dolby TrueHD with Dolby Atmos
  67. Codec ID                                 : A_TRUEHD
  68. Duration                                 : 1 h 47 min
  69. Bit rate mode                            : Variable
  70. Bit rate                                 : 4 888 kb/s
  71. Maximum bit rate                         : 8 139 kb/s
  72. Channel(s)                               : 8 channels
  73. Channel layout                           : L R C LFE Ls Rs Lb Rb
  74. Sampling rate                            : 48.0 kHz
  75. Frame rate                               : 1 200.000 FPS (40 SPF)
  76. Compression mode                         : Lossless
  77. Stream size                              : 3.68 GiB (51%)
  78. Title                                    : [www.MoviezAddiction.space]
  79. Language                                 : English
  80. Default                                  : No
  81. Forced                                   : No
  82. Number of dynamic objects                : 11
  83. Bed channel count                        : 1 channel
  84. Bed channel configuration                : LFE
  85.  
  86. Text
  87. ID                                       : 2
  88. Format                                   : PGS
  89. Muxing mode                              : zlib
  90. Codec ID                                 : S_HDMV/PGS
  91. Codec ID/Info                            : Picture based subtitle format used on BDs/HD-DVDs
  92. Duration                                 : 1 h 39 min
  93. Bit rate                                 : 48.1 kb/s
  94. Count of elements                        : 3466
  95. Stream size                              : 34.0 MiB (0%)
  96. Title                                    : [www.MoviezAddiction.space]
  97. Language                                 : English
  98. Default                                  : Yes
  99. Forced                                   : Yes
  100.  
  101. Menu
  102. 00:00:00.000                             : en:00:00:00.000
  103. 00:04:29.352                             : en:00:04:29.352
  104. 00:10:36.469                             : en:00:10:36.469
  105. 00:14:04.677                             : en:00:14:04.677
  106. 00:18:32.653                             : en:00:18:32.653
  107. 00:25:14.722                             : en:00:25:14.722
  108. 00:30:04.052                             : en:00:30:04.052
  109. 00:35:11.776                             : en:00:35:11.776
  110. 00:40:07.405                             : en:00:40:07.405
  111. 00:44:36.132                             : en:00:44:36.132
  112. 00:50:26.649                             : en:00:50:26.649
  113. 00:55:36.208                             : en:00:55:36.208
  114. 01:04:40.710                             : en:01:04:40.710
  115. 01:14:03.981                             : en:01:14:03.981
  116. 01:19:17.962                             : en:01:19:17.962
  117. 01:23:59.159                             : en:01:23:59.159
  118. 01:26:56.461                             : en:01:26:56.461
  119. 01:30:38.266                             : en:01:30:38.266
  120. 01:34:47.181                             : en:01:34:47.181
  121. 01:40:16.010                             : en:01:40:16.010