The text below is selected, press Ctrl+C to copy to your clipboard. (⌘+C on Mac) No line numbers will be copied.
Expedition Everest (2020) 1080p

15th September 2020 12:12:09 PM | Views: 18
  1. Format                                   : Matroska
  2. Format version                           : Version 4
  3. File size                                : 1.05 GiB
  4. Duration                                 : 42 min 14 s
  5. Overall bit rate                         : 3 549 kb/s
  6. Movie name                               : Expedition Everest (2020) 1080p WEB-DL x264 Dual Audio [Hindi DD2.0 + English DD2.0] ESub 1.04GB [www.MoviezAddiction.space]
  7. Encoded date                             : UTC 2020-09-13 16:55:35
  8. Writing application                      : mkvmerge v48.0.0 ('Fortress Around Your Heart') 64-bit
  9. Writing library                          : libebml v1.4.0 + libmatroska v1.6.0
  10.  
  11. Video
  12. ID                                       : 1
  13. Format                                   : AVC
  14. Format/Info                              : Advanced Video Codec
  15. Format profile                           : [email protected]
  16. Format settings                          : CABAC / 4 Ref Frames
  17. Format settings, CABAC                   : Yes
  18. Format settings, Reference frames        : 4 frames
  19. Codec ID                                 : V_MPEG4/ISO/AVC
  20. Duration                                 : 42 min 14 s
  21. Bit rate                                 : 3 300 kb/s
  22. Width                                    : 1 920 pixels
  23. Height                                   : 1 080 pixels
  24. Display aspect ratio                     : 16:9
  25. Frame rate mode                          : Constant
  26. Frame rate                               : 25.000 FPS
  27. Color space                              : YUV
  28. Chroma subsampling                       : 4:2:0
  29. Bit depth                                : 8 bits
  30. Scan type                                : Progressive
  31. Bits/(Pixel*Frame)                       : 0.064
  32. Stream size                              : 994 MiB (93%)
  33. Title                                    : [www.MoviezAddiction.space]
  34. Writing library                          : x264 core 155 r2917 0a84d98
  35. Encoding settings                        : cabac=1 / ref=4 / deblock=1:-1:-1 / analyse=0x3:0x113 / me=hex / subme=8 / psy=1 / psy_rd=1.00:0.15 / mixed_ref=1 / me_range=16 / chroma_me=1 / trellis=2 / 8x8dct=1 / cqm=0 / deadzone=21,11 / fast_pskip=1 / chroma_qp_offset=-3 / threads=12 / lookahead_threads=2 / sliced_threads=0 / nr=0 / decimate=1 / interlaced=0 / bluray_compat=0 / constrained_intra=0 / bframes=3 / b_pyramid=2 / b_adapt=2 / b_bias=0 / direct=3 / weightb=1 / open_gop=0 / weightp=2 / keyint=50 / keyint_min=26 / scenecut=0 / intra_refresh=0 / rc_lookahead=50 / rc=2pass / mbtree=1 / bitrate=3300 / ratetol=1.0 / qcomp=0.60 / qpmin=0 / qpmax=69 / qpstep=4 / cplxblur=20.0 / qblur=0.5 / vbv_maxrate=4620 / vbv_bufsize=6600 / nal_hrd=none / filler=0 / ip_ratio=1.40 / aq=3:1.00
  36. Default                                  : Yes
  37. Forced                                   : No
  38.  
  39. Audio #1
  40. ID                                       : 2
  41. Format                                   : AAC LC SBR
  42. Format/Info                              : Advanced Audio Codec Low Complexity with Spectral Band Replication
  43. Commercial name                          : HE-AAC
  44. Format settings                          : Explicit
  45. Codec ID                                 : A_AAC-2
  46. Duration                                 : 42 min 14 s
  47. Bit rate                                 : 128 kb/s
  48. Channel(s)                               : 2 channels
  49. Channel layout                           : L R
  50. Sampling rate                            : 96.0 kHz
  51. Frame rate                               : 46.875 FPS (2048 SPF)
  52. Compression mode                         : Lossy
  53. Stream size                              : 38.8 MiB (4%)
  54. Title                                    : [www.MoviezAddiction.space] - English
  55. Language                                 : English
  56. Default                                  : No
  57. Forced                                   : No
  58.  
  59. Audio #2
  60. ID                                       : 3
  61. Format                                   : AAC LC SBR
  62. Format/Info                              : Advanced Audio Codec Low Complexity with Spectral Band Replication
  63. Commercial name                          : HE-AAC
  64. Format settings                          : Explicit
  65. Codec ID                                 : A_AAC-2
  66. Duration                                 : 42 min 14 s
  67. Bit rate                                 : 128 kb/s
  68. Channel(s)                               : 2 channels
  69. Channel layout                           : L R
  70. Sampling rate                            : 96.0 kHz
  71. Frame rate                               : 46.875 FPS (2048 SPF)
  72. Compression mode                         : Lossy
  73. Stream size                              : 38.8 MiB (4%)
  74. Title                                    : [www.MoviezAddiction.space] - Hindi
  75. Language                                 : Hindi
  76. Default                                  : Yes
  77. Forced                                   : Yes
  78.  
  79. Text
  80. ID                                       : 4
  81. Format                                   : UTF-8
  82. Codec ID                                 : S_TEXT/UTF8
  83. Codec ID/Info                            : UTF-8 Plain Text
  84. Duration                                 : 41 min 50 s
  85. Bit rate                                 : 93 b/s
  86. Count of elements                        : 783
  87. Stream size                              : 28.8 KiB (0%)
  88. Title                                    : [www.MoviezAddiction.space] - English [SRT]
  89. Language                                 : English
  90. Default                                  : Yes
  91. Forced                                   : Yes