>
The text below is selected, press Ctrl+C to copy to your clipboard. (⌘+C on Mac) No line numbers will be copied.
MediaInfo |...

9th February 2019 07:53:22 PM | Views: 164
  1. Format                      : Matroska
  2. Format version              : Version 4 / Version 2
  3. File size                   : 2.50 GiB
  4. Duration                    : 1 h 53 min
  5. Overall bit rate            : 3 158 kb/s
  6. Movie name                  : Memento.2000.REMASTERED.1080p.BluRay.10bit.HEVC.6CH.MkvCage.ws
  7. Encoded date                : UTC 2019-02-09 18:23:34
  8. Writing application         : mkvmerge v30.1.0 ('Forever And More') 64-bit
  9. Writing library             : libebml v1.3.6 + libmatroska v1.4.9
  10. Cover                       : Yes
  11. Attachments                 : cover.jpg
  12.  
  13. Video
  14. ID                          : 1
  15. Format                      : HEVC
  16. Format/Info                 : High Efficiency Video Coding
  17. Format profile              : Main [email protected]@Main
  18. Codec ID                    : V_MPEGH/ISO/HEVC
  19. Duration                    : 1 h 53 min
  20. Bit rate                    : 2 964 kb/s
  21. Width                       : 1 920 pixels
  22. Height                      : 816 pixels
  23. Display aspect ratio        : 2.35:1
  24. Frame rate mode             : Constant
  25. Frame rate                  : 23.976 (24000/1001) FPS
  26. Color space                 : YUV
  27. Chroma subsampling          : 4:2:0
  28. Bit depth                   : 10 bits
  29. Bits/(Pixel*Frame)          : 0.079
  30. Stream size                 : 2.35 GiB (94%)
  31. Default                     : Yes
  32. Forced                      : No
  33.  
  34. Audio
  35. ID                          : 2
  36. Format                      : AAC LC SBR
  37. Format/Info                 : Advanced Audio Codec Low Complexity with Spectral Band Replication
  38. Commercial name             : HE-AAC
  39. Format settings             : Explicit
  40. Codec ID                    : A_AAC-2
  41. Duration                    : 1 h 53 min
  42. Bit rate                    : 192 kb/s
  43. Channel(s)                  : 6 channels
  44. Channel layout              : C L R Ls Rs LFE
  45. Sampling rate               : 48.0 kHz
  46. Frame rate                  : 23.438 FPS (2048 SPF)
  47. Compression mode            : Lossy
  48. Delay relative to video     : 43 ms
  49. Stream size                 : 156 MiB (6%)
  50. Language                    : English
  51. Default                     : Yes
  52. Forced                      : No
  53.  
  54. Text
  55. ID                          : 3
  56. Format                      : UTF-8
  57. Codec ID                    : S_TEXT/UTF8
  58. Codec ID/Info               : UTF-8 Plain Text
  59. Duration                    : 1 h 47 min
  60. Bit rate                    : 62 b/s
  61. Count of elements           : 1228
  62. Stream size                 : 49.3 KiB (0%)
  63. Language                    : English
  64. Default                     : Yes
  65. Forced                      : No
  66.  
  67. Menu
  68. 00:00:00.000                : :Opening
  69. 00:02:33.000                : :It's Just an Anonymous Room
  70. 00:06:24.000                : :It's Like Waking
  71. 00:11:04.000                : :Remember Sammy Jankis
  72. 00:16:10.000                : :You Don't Remember Me
  73. 00:22:14.000                : :Memories Can Be Distorted
  74. 00:28:26.000                : :How Am I Supposed to Heal?
  75. 00:39:21.000                : :Habit and Routine
  76. 00:48:50.000                : :I'm Chasing This Guy
  77. 00:52:32.000                : :Can't Remember to Forget
  78. 00:53:27.000                : :Sammy's Wife
  79. 01:02:32.000                : :Somebody Always Pays
  80. 01:04:47.000                : :What Would You Kill for?
  81. 01:09:46.000                : :Something to Remember You by
  82. 01:17:06.000                : :Nobody's Perfect
  83. 01:21:31.000                : :You Don't Know Anything
  84. 01:26:19.000                : :Do You Remember Me?
  85. 01:33:44.000                : :It Makes All The Difference
  86. 01:40:33.000                : :I'm No Different