The text below is selected, press Ctrl+C to copy to your clipboard. (⌘+C on Mac) No line numbers will be copied.
Ponyo (2008) 1080p BluRay REMUX...

22nd November 2022 02:18:06 PM | Views: 17
  1. Format                                   : Matroska
  2. Format version                           : Version 4
  3. File size                                : 18.6 GiB
  4. Duration                                 : 1 h 42 min
  5. Overall bit rate mode                    : Variable
  6. Overall bit rate                         : 26.0 Mb/s
  7. Movie name                               : Ponyo (2008) 1080p BluRay REMUX x264 Dual Audio [Hindi DDP5.1 + Engish DTS-HD MA 5.1] ESub 18.5GB [MoviezAddiction.life]
  8. Encoded date                             : UTC 2022-11-20 09:06:01
  9. Writing application                      : mkvmerge v72.0.0 ('Minuano (Six-eight)') 64-bit
  10. Writing library                          : libebml v1.4.4 + libmatroska v1.7.1
  11.  
  12. Video
  13. ID                                       : 1
  14. Format                                   : AVC
  15. Format/Info                              : Advanced Video Codec
  16. Format profile                           : [email protected]
  17. Format settings                          : CABAC / 2 Ref Frames
  18. Format settings, CABAC                   : Yes
  19. Format settings, Reference frames        : 2 frames
  20. Codec ID                                 : V_MPEG4/ISO/AVC
  21. Duration                                 : 1 h 42 min
  22. Bit rate                                 : 23.0 Mb/s
  23. Width                                    : 1 920 pixels
  24. Height                                   : 1 080 pixels
  25. Display aspect ratio                     : 16:9
  26. Frame rate mode                          : Constant
  27. Frame rate                               : 23.976 (24000/1001) FPS
  28. Color space                              : YUV
  29. Chroma subsampling                       : 4:2:0
  30. Bit depth                                : 8 bits
  31. Scan type                                : Progressive
  32. Bits/(Pixel*Frame)                       : 0.463
  33. Stream size                              : 16.4 GiB (89%)
  34. Default                                  : Yes
  35. Forced                                   : No
  36.  
  37. Audio #1
  38. ID                                       : 2
  39. Format                                   : E-AC-3
  40. Format/Info                              : Enhanced AC-3
  41. Commercial name                          : Dolby Digital Plus
  42. Codec ID                                 : A_EAC3
  43. Duration                                 : 1 h 41 min
  44. Bit rate mode                            : Constant
  45. Bit rate                                 : 640 kb/s
  46. Channel(s)                               : 6 channels
  47. Channel layout                           : L R C LFE Ls Rs
  48. Sampling rate                            : 48.0 kHz
  49. Frame rate                               : 31.250 FPS (1536 SPF)
  50. Compression mode                         : Lossy
  51. Delay relative to video                  : -3 s 967 ms
  52. Stream size                              : 466 MiB (2%)
  53. Title                                    : Hindi
  54. Language                                 : Hindi
  55. Service kind                             : Complete Main
  56. Default                                  : Yes
  57. Forced                                   : No
  58.  
  59. Audio #2
  60. ID                                       : 3
  61. Format                                   : DTS XLL
  62. Format/Info                              : Digital Theater Systems
  63. Commercial name                          : DTS-HD Master Audio
  64. Codec ID                                 : A_DTS
  65. Duration                                 : 1 h 42 min
  66. Bit rate mode                            : Variable
  67. Bit rate                                 : 2 322 kb/s
  68. Channel(s)                               : 6 channels
  69. Channel layout                           : C L R Ls Rs LFE
  70. Sampling rate                            : 48.0 kHz
  71. Frame rate                               : 93.750 FPS (512 SPF)
  72. Bit depth                                : 16 bits
  73. Compression mode                         : Lossless
  74. Stream size                              : 1.66 GiB (9%)
  75. Title                                    : English
  76. Language                                 : English
  77. Default                                  : No
  78. Forced                                   : No
  79.  
  80. Text
  81. ID                                       : 4
  82. Format                                   : PGS
  83. Codec ID                                 : S_HDMV/PGS
  84. Codec ID/Info                            : Picture based subtitle format used on BDs/HD-DVDs
  85. Duration                                 : 1 h 36 min
  86. Bit rate                                 : 21.2 kb/s
  87. Frame rate                               : 0.288 FPS
  88. Count of elements                        : 1665
  89. Stream size                              : 14.6 MiB (0%)
  90. Title                                    : English [PGS]
  91. Language                                 : English
  92. Default                                  : Yes
  93. Forced                                   : No
  94.  
  95. Menu
  96. 00:00:03.976                             : en:Life
  97. 00:04:38.918                             : en:The Beginning
  98. 00:08:09.628                             : en:Sosuke
  99. 00:12:33.892                             : en:I'll Call Her Ponyo
  100. 00:17:03.662                             : en:My Fault
  101. 00:21:06.404                             : en:Ponyo Loves Sosuke
  102. 00:25:10.148                             : en:Bugoff
  103. 00:30:05.443                             : en:Hands and Feet
  104. 00:33:35.945                             : en:The Magic Well
  105. 00:37:36.393                             : en:An Explosion of Life
  106. 00:42:12.961                             : en:Micro Typhoon
  107. 00:45:41.378                             : en:Running on a Fish
  108. 00:50:38.675                             : en:This is the Best
  109. 00:56:17.013                             : en:Ham!
  110. 00:59:13.689                             : en:Be Brave
  111. 01:02:04.860                             : en:The Goddess of Mercy
  112. 01:05:17.052                             : en:Let Them Sleep
  113. 01:08:57.773                             : en:Fantastic
  114. 01:13:03.518                             : en:I Used to be a Fish
  115. 01:19:27.902                             : en:I'd Miss You
  116. 01:24:24.198                             : en:Mom?
  117. 01:29:13.487                             : en:Come With Me
  118. 01:33:20.734                             : en:I Really Love Her
  119. 01:39:14.588                             : en:Credits