The text below is selected, press Ctrl+C to copy to your clipboard. (⌘+C on Mac) No line numbers will be copied.
Exorcist: The Beginning (2004) 480p

24th July 2020 07:29:30 PM | Views: 34
  1. General
  2. Unique ID                                : 183932875396429292286183561803315189599 (0x8A602EE95CB218534A5D93D22E26975F)
  3. Complete name                            : S:\Pending Movies\Exorcist The Beginning (2004) Working\Exorcist The Beginning (2004) 480p BluRay x264 Dual Audio [Hindi DD2.0 + English DD2.0] ESub 363MB [Www.MoviezAddiction.site].mkv
  4. Format                                   : Matroska
  5. Format version                           : Version 4
  6. File size                                : 364 MiB
  7. Duration                                 : 1 h 53 min
  8. Overall bit rate                         : 447 kb/s
  9. Movie name                               : Exorcist The Beginning (2004) 480p BluRay x264 Dual Audio [Hindi DD2.0 + English DD2.0] ESub [Www.MoviezAddiction.site]
  10. Encoded date                             : UTC 2020-07-24 16:47:17
  11. Writing application                      : mkvmerge v47.0.0 ('Black Flag') 64-bit
  12. Writing library                          : libebml v1.3.10 + libmatroska v1.5.2
  13.  
  14. Video
  15. ID                                       : 1
  16. Format                                   : AVC
  17. Format/Info                              : Advanced Video Codec
  18. Format profile                           : [email protected]
  19. Format settings                          : CABAC / 4 Ref Frames
  20. Format settings, CABAC                   : Yes
  21. Format settings, Reference frames        : 4 frames
  22. Codec ID                                 : V_MPEG4/ISO/AVC
  23. Duration                                 : 1 h 53 min
  24. Bit rate                                 : 350 kb/s
  25. Width                                    : 720 pixels
  26. Height                                   : 304 pixels
  27. Display aspect ratio                     : 2.35:1
  28. Frame rate mode                          : Constant
  29. Frame rate                               : 23.976 (24000/1001) FPS
  30. Color space                              : YUV
  31. Chroma subsampling                       : 4:2:0
  32. Bit depth                                : 8 bits
  33. Scan type                                : Progressive
  34. Bits/(Pixel*Frame)                       : 0.067
  35. Stream size                              : 284 MiB (78%)
  36. Title                                    : [Www.MoviezAddiction.site]
  37. Writing library                          : x264 core 160 r3000 33f9e14
  38. Encoding settings                        : cabac=1 / ref=3 / deblock=1:0:0 / analyse=0x1:0x111 / me=hex / subme=7 / psy=1 / psy_rd=1.00:0.00 / mixed_ref=1 / me_range=16 / chroma_me=1 / trellis=1 / 8x8dct=0 / cqm=0 / deadzone=21,11 / fast_pskip=1 / chroma_qp_offset=-2 / threads=9 / lookahead_threads=1 / sliced_threads=0 / nr=0 / decimate=1 / interlaced=0 / bluray_compat=0 / constrained_intra=0 / bframes=3 / b_pyramid=2 / b_adapt=1 / b_bias=0 / direct=1 / weightb=1 / open_gop=0 / weightp=2 / keyint=250 / keyint_min=23 / scenecut=40 / intra_refresh=0 / rc_lookahead=40 / rc=2pass / mbtree=1 / bitrate=350 / ratetol=1.0 / qcomp=0.60 / qpmin=0 / qpmax=69 / qpstep=4 / cplxblur=20.0 / qblur=0.5 / ip_ratio=1.40 / aq=1:1.00
  39. Default                                  : Yes
  40. Forced                                   : No
  41.  
  42. Audio #1
  43. ID                                       : 2
  44. Format                                   : E-AC-3
  45. Format/Info                              : Enhanced AC-3
  46. Commercial name                          : Dolby Digital Plus
  47. Codec ID                                 : A_EAC3
  48. Duration                                 : 1 h 53 min
  49. Bit rate mode                            : Constant
  50. Bit rate                                 : 48.0 kb/s
  51. Channel(s)                               : 2 channels
  52. Channel layout                           : L R
  53. Sampling rate                            : 48.0 kHz
  54. Frame rate                               : 31.250 FPS (1536 SPF)
  55. Compression mode                         : Lossy
  56. Delay relative to video                  : 16 s 850 ms
  57. Stream size                              : 38.8 MiB (11%)
  58. Title                                    : [Www.MoviezAddiction.site]
  59. Language                                 : Hindi
  60. Service kind                             : Complete Main
  61. Default                                  : Yes
  62. Forced                                   : Yes
  63.  
  64. Audio #2
  65. ID                                       : 3
  66. Format                                   : E-AC-3
  67. Format/Info                              : Enhanced AC-3
  68. Commercial name                          : Dolby Digital Plus
  69. Codec ID                                 : A_EAC3
  70. Duration                                 : 1 h 53 min
  71. Bit rate mode                            : Constant
  72. Bit rate                                 : 48.0 kb/s
  73. Channel(s)                               : 2 channels
  74. Channel layout                           : L R
  75. Sampling rate                            : 48.0 kHz
  76. Frame rate                               : 31.250 FPS (1536 SPF)
  77. Compression mode                         : Lossy
  78. Stream size                              : 39.0 MiB (11%)
  79. Title                                    : [Www.MoviezAddiction.site]
  80. Language                                 : English
  81. Service kind                             : Complete Main
  82. Default                                  : No
  83. Forced                                   : No