The text below is selected, press Ctrl+C to copy to your clipboard. (⌘+C on Mac) No line numbers will be copied.
Antim: The Final Truth (2021)...

27th November 2021 02:16:59 PM | Views: 96
  1. Format                                   : Matroska
  2. Format version                           : Version 4
  3. File size                                : 1.18 GiB
  4. Duration                                 : 2 h 18 min
  5. Overall bit rate                         : 1 227 kb/s
  6. Movie name                               : Antim: The Final Truth (2021) 720p Pre DVD x264 Hindi DD2.0 1.18GB [www.MoviezAddiction.cc]
  7. Encoded date                             : UTC 2021-11-27 11:15:48
  8. Writing application                      : mkvmerge v47.0.0 ('Black Flag') 64-bit
  9. Writing library                          : libebml v1.3.10 + libmatroska v1.5.2
  10.  
  11. Video
  12. ID                                       : 1
  13. Format                                   : AVC
  14. Format/Info                              : Advanced Video Codec
  15. Format profile                           : [email protected]
  16. Format settings                          : CABAC / 4 Ref Frames
  17. Format settings, CABAC                   : Yes
  18. Format settings, Reference frames        : 4 frames
  19. Codec ID                                 : V_MPEG4/ISO/AVC
  20. Duration                                 : 2 h 18 min
  21. Bit rate                                 : 1 099 kb/s
  22. Width                                    : 1 280 pixels
  23. Height                                   : 514 pixels
  24. Display aspect ratio                     : 2.485
  25. Original display aspect ratio            : 2.487
  26. Frame rate mode                          : Variable
  27. Frame rate                               : 23.976 (24000/1001) FPS
  28. Color space                              : YUV
  29. Chroma subsampling                       : 4:2:0
  30. Bit depth                                : 8 bits
  31. Scan type                                : Progressive
  32. Bits/(Pixel*Frame)                       : 0.070
  33. Stream size                              : 1.06 GiB (90%)
  34. Title                                    : [www.MoviezAddiction.cc]
  35. Default                                  : Yes
  36. Forced                                   : No
  37. Color range                              : Limited
  38. Color primaries                          : BT.709
  39. Transfer characteristics                 : BT.709
  40. Matrix coefficients                      : BT.709
  41.  
  42. Audio
  43. ID                                       : 2
  44. Format                                   : AAC LC
  45. Format/Info                              : Advanced Audio Codec Low Complexity
  46. Codec ID                                 : A_AAC-2
  47. Duration                                 : 2 h 18 min
  48. Bit rate                                 : 125 kb/s
  49. Channel(s)                               : 2 channels
  50. Channel layout                           : L R
  51. Sampling rate                            : 48.0 kHz
  52. Frame rate                               : 46.875 FPS (1024 SPF)
  53. Compression mode                         : Lossy
  54. Stream size                              : 124 MiB (10%)
  55. Title                                    : [www.MoviezAddiction.cc] - Hindi
  56. Language                                 : Hindi
  57. Default                                  : Yes
  58. Forced                                   : No