The text below is selected, press Ctrl+C to copy to your clipboard. (⌘+C on Mac) No line numbers will be copied.
The Rig (2023) S01E01 2160p...

13th January 2023 04:20:00 PM | Views: 9
  1. Format                                   : Matroska
  2. Format version                           : Version 4
  3. File size                                : 5.47 GiB
  4. Duration                                 : 49 min 50 s
  5. Overall bit rate                         : 15.7 Mb/s
  6. Movie name                               : The Rig (2023) S01E01 2160p AMZN UHD WEB-DL x265 10bit HDR HEVC Dual Audio [Hindi + English DDP5.1] ESub 5.46GB [MoviezAddiction]
  7. Encoded date                             : UTC 2023-01-13 14:06:34
  8. Writing application                      : mkvmerge v72.0.0 ('Minuano (Six-eight)') 64-bit
  9. Writing library                          : libebml v1.4.4 + libmatroska v1.7.1
  10.  
  11. Video
  12. ID                                       : 1
  13. Format                                   : HEVC
  14. Format/Info                              : High Efficiency Video Coding
  15. Format profile                           : Main [email protected]@Main
  16. HDR format                               : SMPTE ST 2094 App 4, Version 1, HDR10+ Profile B compatible
  17. Codec ID                                 : V_MPEGH/ISO/HEVC
  18. Duration                                 : 49 min 50 s
  19. Bit rate                                 : 14.4 Mb/s
  20. Width                                    : 3 840 pixels
  21. Height                                   : 1 920 pixels
  22. Display aspect ratio                     : 2.000
  23. Frame rate mode                          : Constant
  24. Frame rate                               : 25.000 FPS
  25. Color space                              : YUV
  26. Chroma subsampling                       : 4:2:0
  27. Bit depth                                : 10 bits
  28. Bits/(Pixel*Frame)                       : 0.078
  29. Stream size                              : 5.02 GiB (92%)
  30. Default                                  : Yes
  31. Forced                                   : No
  32. Color range                              : Limited
  33. Color primaries                          : BT.2020
  34. Transfer characteristics                 : PQ
  35. Matrix coefficients                      : BT.2020 non-constant
  36. Mastering display color primaries        : Display P3
  37. Mastering display luminance              : min: 0.0001 cd/m2, max: 1000 cd/m2
  38. Maximum Content Light Level              : 911 cd/m2
  39. Maximum Frame-Average Light Level        : 163 cd/m2
  40.  
  41. Audio #1
  42. ID                                       : 2
  43. Format                                   : E-AC-3
  44. Format/Info                              : Enhanced AC-3
  45. Commercial name                          : Dolby Digital Plus
  46. Codec ID                                 : A_EAC3
  47. Duration                                 : 49 min 50 s
  48. Bit rate mode                            : Constant
  49. Bit rate                                 : 640 kb/s
  50. Channel(s)                               : 6 channels
  51. Channel layout                           : L R C LFE Ls Rs
  52. Sampling rate                            : 48.0 kHz
  53. Frame rate                               : 31.250 FPS (1536 SPF)
  54. Compression mode                         : Lossy
  55. Stream size                              : 228 MiB (4%)
  56. Title                                    : Hindi
  57. Language                                 : Hindi
  58. Service kind                             : Complete Main
  59. Default                                  : Yes
  60. Forced                                   : No
  61.  
  62. Audio #2
  63. ID                                       : 3
  64. Format                                   : E-AC-3
  65. Format/Info                              : Enhanced AC-3
  66. Commercial name                          : Dolby Digital Plus
  67. Codec ID                                 : A_EAC3
  68. Duration                                 : 49 min 50 s
  69. Bit rate mode                            : Constant
  70. Bit rate                                 : 640 kb/s
  71. Channel(s)                               : 6 channels
  72. Channel layout                           : L R C LFE Ls Rs
  73. Sampling rate                            : 48.0 kHz
  74. Frame rate                               : 31.250 FPS (1536 SPF)
  75. Compression mode                         : Lossy
  76. Stream size                              : 228 MiB (4%)
  77. Title                                    : English
  78. Language                                 : English
  79. Service kind                             : Complete Main
  80. Default                                  : No
  81. Forced                                   : No
  82.  
  83. Text
  84. ID                                       : 4
  85. Format                                   : UTF-8
  86. Codec ID                                 : S_TEXT/UTF8
  87. Codec ID/Info                            : UTF-8 Plain Text
  88. Duration                                 : 47 min 48 s
  89. Bit rate                                 : 75 b/s
  90. Frame rate                               : 0.270 FPS
  91. Count of elements                        : 775
  92. Stream size                              : 26.5 KiB (0%)
  93. Title                                    : English [SRT]
  94. Language                                 : English
  95. Default                                  : Yes
  96. Forced                                   : No