The text below is selected, press Ctrl+C to copy to your clipboard. (⌘+C on Mac) No line numbers will be copied.
The Hatchet Wielding Hitchhiker (2023)...

24th January 2023 03:16:22 PM | Views: 7
  1. Format                                   : Matroska
  2. Format version                           : Version 4
  3. File size                                : 3.25 GiB
  4. Duration                                 : 1 h 27 min
  5. Overall bit rate                         : 5 331 kb/s
  6. Movie name                               : The Hatchet Wielding Hitchhiker (2023) 1080p NF WEB-DL x265 10bit HDR DV HEVC Dual Audio [Hindi DDP5.1 + English DDP5.1 Atmos] ESub 3.24GB [MoviezAddiction]
  7. Encoded date                             : UTC 2023-01-24 12:57:35
  8. Writing application                      : mkvmerge v72.0.0 ('Minuano (Six-eight)') 64-bit
  9. Writing library                          : libebml v1.4.4 + libmatroska v1.7.1
  10.  
  11. Video
  12. ID                                       : 1
  13. Format                                   : HEVC
  14. Format/Info                              : High Efficiency Video Coding
  15. Format profile                           : Main [email protected]@Main
  16. HDR format                               : Dolby Vision, Version 1.0, dvhe.08.03, BL+RPU, HDR10 compatible / SMPTE ST 2086, HDR10 compatible
  17. Codec ID                                 : V_MPEGH/ISO/HEVC
  18. Duration                                 : 1 h 26 min
  19. Bit rate                                 : 3 972 kb/s
  20. Width                                    : 1 920 pixels
  21. Height                                   : 1 080 pixels
  22. Display aspect ratio                     : 16:9
  23. Frame rate mode                          : Constant
  24. Frame rate                               : 23.976 (24000/1001) FPS
  25. Color space                              : YUV
  26. Chroma subsampling                       : 4:2:0 (Type 2)
  27. Bit depth                                : 10 bits
  28. Bits/(Pixel*Frame)                       : 0.080
  29. Stream size                              : 2.39 GiB (74%)
  30. Default                                  : Yes
  31. Forced                                   : No
  32. Color range                              : Limited
  33. Color primaries                          : BT.2020
  34. Transfer characteristics                 : PQ
  35. Matrix coefficients                      : BT.2020 non-constant
  36. Mastering display color primaries        : Display P3
  37. Mastering display luminance              : min: 0.0001 cd/m2, max: 1000 cd/m2
  38. Maximum Content Light Level              : 905 cd/m2
  39. Maximum Frame-Average Light Level        : 271 cd/m2
  40.  
  41. Audio #1
  42. ID                                       : 2
  43. Format                                   : E-AC-3
  44. Format/Info                              : Enhanced AC-3
  45. Commercial name                          : Dolby Digital Plus
  46. Codec ID                                 : A_EAC3
  47. Duration                                 : 1 h 27 min
  48. Bit rate mode                            : Constant
  49. Bit rate                                 : 640 kb/s
  50. Channel(s)                               : 6 channels
  51. Channel layout                           : L R C LFE Ls Rs
  52. Sampling rate                            : 48.0 kHz
  53. Frame rate                               : 31.250 FPS (1536 SPF)
  54. Compression mode                         : Lossy
  55. Stream size                              : 399 MiB (12%)
  56. Title                                    : Hindi
  57. Language                                 : Hindi
  58. Service kind                             : Complete Main
  59. Default                                  : Yes
  60. Forced                                   : No
  61.  
  62. Audio #2
  63. ID                                       : 3
  64. Format                                   : E-AC-3 JOC
  65. Format/Info                              : Enhanced AC-3 with Joint Object Coding
  66. Commercial name                          : Dolby Digital Plus with Dolby Atmos
  67. Codec ID                                 : A_EAC3
  68. Duration                                 : 1 h 27 min
  69. Bit rate mode                            : Constant
  70. Bit rate                                 : 768 kb/s
  71. Channel(s)                               : 6 channels
  72. Channel layout                           : L R C LFE Ls Rs
  73. Sampling rate                            : 48.0 kHz
  74. Frame rate                               : 31.250 FPS (1536 SPF)
  75. Compression mode                         : Lossy
  76. Stream size                              : 479 MiB (14%)
  77. Title                                    : English
  78. Language                                 : English
  79. Service kind                             : Complete Main
  80. Default                                  : No
  81. Forced                                   : No
  82. Complexity index                         : 16
  83. Number of dynamic objects                : 15
  84. Bed channel count                        : 1 channel
  85. Bed channel configuration                : LFE
  86.  
  87. Text
  88. ID                                       : 4
  89. Format                                   : UTF-8
  90. Codec ID                                 : S_TEXT/UTF8
  91. Codec ID/Info                            : UTF-8 Plain Text
  92. Duration                                 : 1 h 24 min
  93. Bit rate                                 : 112 b/s
  94. Frame rate                               : 0.298 FPS
  95. Count of elements                        : 1503
  96. Stream size                              : 69.1 KiB (0%)
  97. Title                                    : English [SRT]
  98. Language                                 : English
  99. Default                                  : Yes
  100. Forced                                   : No