The text below is selected, press Ctrl+C to copy to your clipboard. (⌘+C on Mac) No line numbers will be copied.
Mirage (2018) 1080p BluRay x264...

17th January 2023 02:52:21 AM | Views: 9
  1. Format                                   : Matroska
  2. Format version                           : Version 4
  3. File size                                : 4.20 GiB
  4. Duration                                 : 2 h 8 min
  5. Overall bit rate                         : 4 667 kb/s
  6. Movie name                               : Mirage (2018) 1080p BluRay x264 Hindi DDP5.1 ESub 4.20GB [MoviezAddiction]
  7. Encoded date                             : UTC 2023-01-17 01:40:15
  8. Writing application                      : mkvmerge v72.0.0 ('Minuano (Six-eight)') 64-bit
  9. Writing library                          : libebml v1.4.4 + libmatroska v1.7.1
  10.  
  11. Video
  12. ID                                       : 1
  13. Format                                   : AVC
  14. Format/Info                              : Advanced Video Codec
  15. Format profile                           : [email protected]
  16. Format settings                          : CABAC / 5 Ref Frames
  17. Format settings, CABAC                   : Yes
  18. Format settings, Reference frames        : 5 frames
  19. Codec ID                                 : V_MPEG4/ISO/AVC
  20. Duration                                 : 2 h 8 min
  21. Bit rate                                 : 4 000 kb/s
  22. Width                                    : 1 920 pixels
  23. Height                                   : 804 pixels
  24. Display aspect ratio                     : 2.40:1
  25. Frame rate mode                          : Variable
  26. Frame rate                               : 23.976 (24000/1001) FPS
  27. Color space                              : YUV
  28. Chroma subsampling                       : 4:2:0
  29. Bit depth                                : 8 bits
  30. Scan type                                : Progressive
  31. Bits/(Pixel*Frame)                       : 0.108
  32. Stream size                              : 3.60 GiB (86%)
  33. Default                                  : Yes
  34. Forced                                   : No
  35. Color range                              : Limited
  36. Color primaries                          : BT.709
  37. Transfer characteristics                 : BT.709
  38. Matrix coefficients                      : BT.709
  39.  
  40. Audio
  41. ID                                       : 2
  42. Format                                   : E-AC-3
  43. Format/Info                              : Enhanced AC-3
  44. Commercial name                          : Dolby Digital Plus
  45. Codec ID                                 : A_EAC3
  46. Duration                                 : 2 h 8 min
  47. Bit rate mode                            : Constant
  48. Bit rate                                 : 640 kb/s
  49. Channel(s)                               : 6 channels
  50. Channel layout                           : L R C LFE Ls Rs
  51. Sampling rate                            : 48.0 kHz
  52. Frame rate                               : 31.250 FPS (1536 SPF)
  53. Compression mode                         : Lossy
  54. Stream size                              : 590 MiB (14%)
  55. Title                                    : Hindi
  56. Language                                 : Hindi
  57. Service kind                             : Complete Main
  58. Default                                  : Yes
  59. Forced                                   : No
  60.  
  61. Text
  62. ID                                       : 3
  63. Format                                   : PGS
  64. Codec ID                                 : S_HDMV/PGS
  65. Codec ID/Info                            : Picture based subtitle format used on BDs/HD-DVDs
  66. Duration                                 : 2 h 7 min
  67. Bit rate                                 : 25.0 kb/s
  68. Frame rate                               : 0.365 FPS
  69. Count of elements                        : 2796
  70. Stream size                              : 22.9 MiB (1%)
  71. Title                                    : English [PGS]
  72. Language                                 : English
  73. Default                                  : Yes
  74. Forced                                   : No
  75.  
  76. Menu
  77. 00:00:00.000                             : Chapter 01
  78. 00:08:02.565                             : Chapter 02
  79. 00:16:47.340                             : Chapter 03
  80. 00:24:41.313                             : Chapter 04
  81. 00:32:52.888                             : Chapter 05
  82. 00:38:51.704                             : Chapter 06
  83. 00:48:31.117                             : Chapter 07
  84. 00:56:32.014                             : Chapter 08
  85. 01:03:06.324                             : Chapter 09
  86. 01:10:32.061                             : Chapter 10
  87. 01:17:45.744                             : Chapter 11
  88. 01:26:27.682                             : Chapter 12
  89. 01:35:39.692                             : Chapter 13
  90. 01:43:52.643                             : Chapter 14
  91. 01:52:36.541                             : Chapter 15
  92. 02:02:20.375                             : Chapter 16