The text below is selected, press Ctrl+C to copy to your clipboard. (⌘+C on Mac) No line numbers will be copied.
Oldboy (2013) 1080p BluRay REMUX...

5th November 2022 02:56:15 PM | Views: 13
  1. Format                                   : Matroska
  2. Format version                           : Version 4
  3. File size                                : 22.7 GiB
  4. Duration                                 : 1 h 43 min
  5. Overall bit rate mode                    : Variable
  6. Overall bit rate                         : 31.3 Mb/s
  7. Movie name                               : Oldboy (2013) 1080p BluRay REMUX x264 English DTS-HD MA 5.1 ESub 22.7GB [MoviezAddiction.life]
  8. Encoded date                             : UTC 2022-11-03 15:01:00
  9. Writing application                      : mkvmerge v71.1.0 ('Fortitude') 64-bit
  10. Writing library                          : libebml v1.4.4 + libmatroska v1.7.1
  11.  
  12. Video
  13. ID                                       : 1
  14. Format                                   : AVC
  15. Format/Info                              : Advanced Video Codec
  16. Format profile                           : [email protected]
  17. Format settings                          : CABAC / 2 Ref Frames
  18. Format settings, CABAC                   : Yes
  19. Format settings, Reference frames        : 2 frames
  20. Format settings, GOP                     : M=1, N=10
  21. Codec ID                                 : V_MPEG4/ISO/AVC
  22. Duration                                 : 1 h 43 min
  23. Bit rate mode                            : Variable
  24. Bit rate                                 : 27.9 Mb/s
  25. Width                                    : 1 920 pixels
  26. Height                                   : 1 080 pixels
  27. Display aspect ratio                     : 16:9
  28. Frame rate mode                          : Constant
  29. Frame rate                               : 23.976 (24000/1001) FPS
  30. Color space                              : YUV
  31. Chroma subsampling                       : 4:2:0
  32. Bit depth                                : 8 bits
  33. Scan type                                : Progressive
  34. Bits/(Pixel*Frame)                       : 0.562
  35. Stream size                              : 20.2 GiB (89%)
  36. Default                                  : Yes
  37. Forced                                   : No
  38.  
  39. Audio
  40. ID                                       : 2
  41. Format                                   : DTS XLL
  42. Format/Info                              : Digital Theater Systems
  43. Commercial name                          : DTS-HD Master Audio
  44. Codec ID                                 : A_DTS
  45. Duration                                 : 1 h 43 min
  46. Bit rate mode                            : Variable
  47. Bit rate                                 : 3 397 kb/s
  48. Channel(s)                               : 6 channels
  49. Channel layout                           : C L R Ls Rs LFE
  50. Sampling rate                            : 48.0 kHz
  51. Frame rate                               : 93.750 FPS (512 SPF)
  52. Bit depth                                : 24 bits
  53. Compression mode                         : Lossless
  54. Stream size                              : 2.46 GiB (11%)
  55. Title                                    : English
  56. Language                                 : English
  57. Default                                  : Yes
  58. Forced                                   : No
  59.  
  60. Text
  61. ID                                       : 3
  62. Format                                   : PGS
  63. Codec ID                                 : S_HDMV/PGS
  64. Codec ID/Info                            : Picture based subtitle format used on BDs/HD-DVDs
  65. Duration                                 : 1 h 37 min
  66. Bit rate                                 : 26.7 kb/s
  67. Frame rate                               : 0.359 FPS
  68. Count of elements                        : 2098
  69. Stream size                              : 18.6 MiB (0%)
  70. Title                                    : English [PGS]
  71. Language                                 : English
  72. Default                                  : Yes
  73. Forced                                   : No
  74.  
  75. Menu
  76. 00:00:00.000                             : en:Chapter 1
  77. 00:04:45.118                             : en:Chapter 2
  78. 00:10:13.988                             : en:Chapter 3
  79. 00:16:15.600                             : en:Chapter 4
  80. 00:22:18.712                             : en:Chapter 5
  81. 00:30:30.162                             : en:Chapter 6
  82. 00:34:31.111                             : en:Chapter 7
  83. 00:43:42.370                             : en:Chapter 8
  84. 00:52:15.424                             : en:Chapter 9
  85. 00:56:28.677                             : en:Chapter 10
  86. 01:04:09.512                             : en:Chapter 11
  87. 01:10:00.488                             : en:Chapter 12
  88. 01:17:15.047                             : en:Chapter 13
  89. 01:22:37.411                             : en:Chapter 14
  90. 01:29:46.881                             : en:Chapter 15
  91. 01:37:15.580                             : en:Chapter 16