The text below is selected, press Ctrl+C to copy to your clipboard. (⌘+C on Mac) No line numbers will be copied.
211 (2018) 1080p REMUX

12th January 2022 02:30:17 AM | Views: 12
  1. Format                                   : Matroska
  2. Format version                           : Version 4
  3. File size                                : 19.2 GiB
  4. Duration                                 : 1 h 27 min
  5. Overall bit rate mode                    : Variable
  6. Overall bit rate                         : 31.5 Mb/s
  7. Movie name                               : 211 (2018) 1080p BluRay REMUX x264 Dual Audio [Hindi DD2.0 + English DTS-HD MA 5.1] ESub 19.1GB [www.MoviezAddiction.art]
  8. Encoded date                             : UTC 2022-01-11 08:25:06
  9. Writing application                      : mkvmerge v47.0.0 ('Black Flag') 64-bit
  10. Writing library                          : libebml v1.3.10 + libmatroska v1.5.2
  11.  
  12. Video
  13. ID                                       : 1
  14. Format                                   : AVC
  15. Format/Info                              : Advanced Video Codec
  16. Format profile                           : [email protected]
  17. Format settings                          : CABAC / 4 Ref Frames
  18. Format settings, CABAC                   : Yes
  19. Format settings, Reference frames        : 4 frames
  20. Codec ID                                 : V_MPEG4/ISO/AVC
  21. Duration                                 : 1 h 27 min
  22. Bit rate mode                            : Variable
  23. Bit rate                                 : 29.1 Mb/s
  24. Maximum bit rate                         : 35.0 Mb/s
  25. Width                                    : 1 920 pixels
  26. Height                                   : 1 080 pixels
  27. Display aspect ratio                     : 16:9
  28. Frame rate mode                          : Constant
  29. Frame rate                               : 23.976 (24000/1001) FPS
  30. Standard                                 : NTSC
  31. Color space                              : YUV
  32. Chroma subsampling                       : 4:2:0
  33. Bit depth                                : 8 bits
  34. Scan type                                : Progressive
  35. Bits/(Pixel*Frame)                       : 0.585
  36. Stream size                              : 17.7 GiB (92%)
  37. Title                                    : [www.MoviezAddiction.art]
  38. Default                                  : Yes
  39. Forced                                   : No
  40. Color range                              : Limited
  41. Color primaries                          : BT.709
  42. Transfer characteristics                 : BT.709
  43. Matrix coefficients                      : BT.709
  44.  
  45. Audio #1
  46. ID                                       : 2
  47. Format                                   : AC-3
  48. Format/Info                              : Audio Coding 3
  49. Commercial name                          : Dolby Digital
  50. Codec ID                                 : A_AC3
  51. Duration                                 : 1 h 27 min
  52. Bit rate mode                            : Constant
  53. Bit rate                                 : 448 kb/s
  54. Channel(s)                               : 2 channels
  55. Channel layout                           : L R
  56. Sampling rate                            : 48.0 kHz
  57. Frame rate                               : 31.250 FPS (1536 SPF)
  58. Compression mode                         : Lossy
  59. Delay relative to video                  : 15 ms
  60. Stream size                              : 279 MiB (1%)
  61. Title                                    : [www.MoviezAddiction.art] - Hindi
  62. Language                                 : Hindi
  63. Service kind                             : Complete Main
  64. Default                                  : Yes
  65. Forced                                   : No
  66.  
  67. Audio #2
  68. ID                                       : 3
  69. Format                                   : DTS XLL
  70. Format/Info                              : Digital Theater Systems
  71. Commercial name                          : DTS-HD Master Audio
  72. Codec ID                                 : A_DTS
  73. Duration                                 : 1 h 27 min
  74. Bit rate mode                            : Variable
  75. Bit rate                                 : 1 959 kb/s
  76. Channel(s)                               : 6 channels
  77. Channel layout                           : C L R Ls Rs LFE
  78. Sampling rate                            : 48.0 kHz
  79. Frame rate                               : 93.750 FPS (512 SPF)
  80. Bit depth                                : 16 bits
  81. Compression mode                         : Lossless
  82. Stream size                              : 1.19 GiB (6%)
  83. Title                                    : [www.MoviezAddiction.art] - English
  84. Language                                 : English
  85. Default                                  : No
  86. Forced                                   : No
  87.  
  88. Text
  89. ID                                       : 4
  90. Format                                   : PGS
  91. Codec ID                                 : S_HDMV/PGS
  92. Codec ID/Info                            : Picture based subtitle format used on BDs/HD-DVDs
  93. Duration                                 : 1 h 21 min
  94. Bit rate                                 : 40.6 kb/s
  95. Count of elements                        : 2012
  96. Stream size                              : 23.7 MiB (0%)
  97. Title                                    : [www.MoviezAddiction.art] - English [PGS]
  98. Language                                 : English
  99. Default                                  : Yes
  100. Forced                                   : No
  101.  
  102. Menu
  103. 00:00:00.000                             : en:Chapter 01
  104. 00:05:50.725                             : en:Chapter 02
  105. 00:10:14.864                             : en:Chapter 03
  106. 00:16:36.370                             : en:Chapter 04
  107. 00:22:31.308                             : en:Chapter 05
  108. 00:27:17.219                             : en:Chapter 06
  109. 00:32:44.713                             : en:Chapter 07
  110. 00:38:48.201                             : en:Chapter 08
  111. 00:44:38.926                             : en:Chapter 09
  112. 00:49:44.607                             : en:Chapter 10
  113. 00:54:29.475                             : en:Chapter 11
  114. 01:00:32.170                             : en:Chapter 12
  115. 01:05:32.971                             : en:Chapter 13
  116. 01:11:29.327                             : en:Chapter 14
  117. 01:16:34.006                             : en:Chapter 15
  118. 01:22:27.192                             : en:Chapter 16