The text below is selected, press Ctrl+C to copy to your clipboard. (⌘+C on Mac) No line numbers will be copied.
211 (2018) 720p

12th January 2022 02:33:09 AM | Views: 62
  1. Format                                   : Matroska
  2. Format version                           : Version 4
  3. File size                                : 1.08 GiB
  4. Duration                                 : 1 h 27 min
  5. Overall bit rate                         : 1 777 kb/s
  6. Movie name                               : 211 (2018) 720p BluRay x264 Dual Audio [Hindi DD2.0 + English BD5.1] ESub 1.08GB [www.MoviezAddiction.art]
  7. Encoded date                             : UTC 2022-01-12 00:59:23
  8. Writing application                      : mkvmerge v47.0.0 ('Black Flag') 64-bit
  9. Writing library                          : libebml v1.3.10 + libmatroska v1.5.2
  10.  
  11. Video
  12. ID                                       : 1
  13. Format                                   : AVC
  14. Format/Info                              : Advanced Video Codec
  15. Format profile                           : [email protected]
  16. Format settings                          : CABAC / 4 Ref Frames
  17. Format settings, CABAC                   : Yes
  18. Format settings, Reference frames        : 4 frames
  19. Codec ID                                 : V_MPEG4/ISO/AVC
  20. Duration                                 : 1 h 27 min
  21. Bit rate                                 : 1 099 kb/s
  22. Width                                    : 1 280 pixels
  23. Height                                   : 694 pixels
  24. Display aspect ratio                     : 1.85:1
  25. Frame rate mode                          : Variable
  26. Frame rate                               : 23.976 (24000/1001) FPS
  27. Color space                              : YUV
  28. Chroma subsampling                       : 4:2:0
  29. Bit depth                                : 8 bits
  30. Scan type                                : Progressive
  31. Bits/(Pixel*Frame)                       : 0.052
  32. Stream size                              : 683 MiB (62%)
  33. Title                                    : [www.MoviezAddiction.art]
  34. Default                                  : Yes
  35. Forced                                   : No
  36. Color range                              : Limited
  37. Color primaries                          : BT.709
  38. Transfer characteristics                 : BT.709
  39. Matrix coefficients                      : BT.709
  40.  
  41. Audio #1
  42. ID                                       : 2
  43. Format                                   : AC-3
  44. Format/Info                              : Audio Coding 3
  45. Commercial name                          : Dolby Digital
  46. Codec ID                                 : A_AC3
  47. Duration                                 : 1 h 27 min
  48. Bit rate mode                            : Constant
  49. Bit rate                                 : 448 kb/s
  50. Channel(s)                               : 2 channels
  51. Channel layout                           : L R
  52. Sampling rate                            : 48.0 kHz
  53. Frame rate                               : 31.250 FPS (1536 SPF)
  54. Compression mode                         : Lossy
  55. Delay relative to video                  : 15 ms
  56. Stream size                              : 279 MiB (25%)
  57. Title                                    : [www.MoviezAddiction.art] - Hindi
  58. Language                                 : Hindi
  59. Service kind                             : Complete Main
  60. Default                                  : Yes
  61. Forced                                   : No
  62.  
  63. Audio #2
  64. ID                                       : 3
  65. Format                                   : AAC LC SBR
  66. Format/Info                              : Advanced Audio Codec Low Complexity with Spectral Band Replication
  67. Commercial name                          : HE-AAC
  68. Format settings                          : Explicit
  69. Codec ID                                 : A_AAC-2
  70. Duration                                 : 1 h 27 min
  71. Bit rate                                 : 192 kb/s
  72. Channel(s)                               : 6 channels
  73. Channel layout                           : C L R Ls Rs LFE
  74. Sampling rate                            : 48.0 kHz
  75. Frame rate                               : 23.438 FPS (2048 SPF)
  76. Compression mode                         : Lossy
  77. Stream size                              : 119 MiB (11%)
  78. Title                                    : [www.MoviezAddiction.art] - English
  79. Language                                 : English
  80. Default                                  : No
  81. Forced                                   : No
  82.  
  83. Text
  84. ID                                       : 4
  85. Format                                   : PGS
  86. Codec ID                                 : S_HDMV/PGS
  87. Codec ID/Info                            : Picture based subtitle format used on BDs/HD-DVDs
  88. Duration                                 : 1 h 21 min
  89. Bit rate                                 : 40.6 kb/s
  90. Count of elements                        : 2012
  91. Stream size                              : 23.7 MiB (2%)
  92. Title                                    : [www.MoviezAddiction.art] - English [PGS]
  93. Language                                 : English
  94. Default                                  : Yes
  95. Forced                                   : No
  96.  
  97. Menu
  98. 00:00:00.000                             : Chapter 01
  99. 00:05:50.725                             : Chapter 02
  100. 00:10:14.864                             : Chapter 03
  101. 00:16:36.370                             : Chapter 04
  102. 00:22:31.308                             : Chapter 05
  103. 00:27:17.219                             : Chapter 06
  104. 00:32:44.713                             : Chapter 07
  105. 00:38:48.201                             : Chapter 08
  106. 00:44:38.926                             : Chapter 09
  107. 00:49:44.607                             : Chapter 10
  108. 00:54:29.475                             : Chapter 11
  109. 01:00:32.170                             : Chapter 12
  110. 01:05:32.971                             : Chapter 13
  111. 01:11:29.327                             : Chapter 14
  112. 01:16:34.006                             : Chapter 15
  113. 01:22:27.192                             : Chapter 16