The text below is selected, press Ctrl+C to copy to your clipboard. (⌘+C on Mac) No line numbers will be copied.
Halloween Kills (2021) EXTENDED 1080p...

13th January 2022 08:13:31 AM | Views: 61
  1. Format                                   : Matroska
  2. Format version                           : Version 4
  3. File size                                : 2.36 GiB
  4. Duration                                 : 1 h 49 min
  5. Overall bit rate                         : 3 100 kb/s
  6. Movie name                               : Halloween Kills (2021) EXTENDED 1080p BluRay x265 10bit HEVC English BD5.1 MSubs 2.36GB [www.MoviezAddiction.art]
  7. Encoded date                             : UTC 2022-01-13 07:10:34
  8. Writing application                      : mkvmerge v47.0.0 ('Black Flag') 64-bit
  9. Writing library                          : libebml v1.3.10 + libmatroska v1.5.2
  10.  
  11. Video
  12. ID                                       : 1
  13. Format                                   : HEVC
  14. Format/Info                              : High Efficiency Video Coding
  15. Format profile                           : Main [email protected]@Main
  16. Codec ID                                 : V_MPEGH/ISO/HEVC
  17. Duration                                 : 1 h 49 min
  18. Bit rate                                 : 2 345 kb/s
  19. Width                                    : 1 920 pixels
  20. Height                                   : 808 pixels
  21. Display aspect ratio                     : 2.40:1
  22. Frame rate mode                          : Constant
  23. Frame rate                               : 23.976 (24000/1001) FPS
  24. Color space                              : YUV
  25. Chroma subsampling                       : 4:2:0
  26. Bit depth                                : 10 bits
  27. Bits/(Pixel*Frame)                       : 0.063
  28. Stream size                              : 1.79 GiB (76%)
  29. Title                                    : [www.MoviezAddiction.art]
  30. Default                                  : Yes
  31. Forced                                   : No
  32.  
  33. Audio
  34. ID                                       : 2
  35. Format                                   : AC-3
  36. Format/Info                              : Audio Coding 3
  37. Commercial name                          : Dolby Digital
  38. Codec ID                                 : A_AC3
  39. Duration                                 : 1 h 49 min
  40. Bit rate mode                            : Constant
  41. Bit rate                                 : 640 kb/s
  42. Channel(s)                               : 6 channels
  43. Channel layout                           : L R C LFE Ls Rs
  44. Sampling rate                            : 48.0 kHz
  45. Frame rate                               : 31.250 FPS (1536 SPF)
  46. Compression mode                         : Lossy
  47. Stream size                              : 500 MiB (21%)
  48. Title                                    : [www.MoviezAddiction.art] - English
  49. Language                                 : English
  50. Service kind                             : Complete Main
  51. Default                                  : Yes
  52. Forced                                   : No
  53.  
  54. Text #1
  55. ID                                       : 3
  56. ID in the original source medium         : 4608 (0x1200)
  57. Format                                   : PGS
  58. Codec ID                                 : S_HDMV/PGS
  59. Codec ID/Info                            : Picture based subtitle format used on BDs/HD-DVDs
  60. Duration                                 : 1 h 45 min
  61. Bit rate                                 : 40.0 kb/s
  62. Count of elements                        : 2980
  63. Stream size                              : 30.1 MiB (1%)
  64. Title                                    : [www.MoviezAddiction.art] - English [PGS]
  65. Language                                 : English
  66. Default                                  : Yes
  67. Forced                                   : No
  68. Original source medium                   : Blu-ray
  69.  
  70. Text #2
  71. ID                                       : 4
  72. ID in the original source medium         : 4611 (0x1203)
  73. Format                                   : PGS
  74. Codec ID                                 : S_HDMV/PGS
  75. Codec ID/Info                            : Picture based subtitle format used on BDs/HD-DVDs
  76. Duration                                 : 1 h 44 min
  77. Bit rate                                 : 77.7 kb/s
  78. Count of elements                        : 3990
  79. Stream size                              : 57.9 MiB (2%)
  80. Title                                    : [www.MoviezAddiction.art] - English [SDH] [PGS]
  81. Language                                 : English
  82. Default                                  : No
  83. Forced                                   : No
  84. Original source medium                   : Blu-ray
  85.  
  86. Menu
  87. 00:00:00.000                             : en:Chapter 01
  88. 00:08:17.788                             : en:Chapter 02
  89. 00:15:10.659                             : en:Chapter 03
  90. 00:19:55.110                             : en:Chapter 04
  91. 00:26:17.576                             : en:Chapter 05
  92. 00:32:31.950                             : en:Chapter 06
  93. 00:38:01.612                             : en:Chapter 07
  94. 00:42:30.214                             : en:Chapter 08
  95. 00:46:52.935                             : en:Chapter 09
  96. 00:49:09.112                             : en:Chapter 10
  97. 00:55:07.721                             : en:Chapter 11
  98. 01:01:32.980                             : en:Chapter 12
  99. 01:06:04.585                             : en:Chapter 13
  100. 01:11:29.493                             : en:Chapter 14
  101. 01:16:19.408                             : en:Chapter 15
  102. 01:22:15.722                             : en:Chapter 16
  103. 01:26:25.805                             : en:Chapter 17
  104. 01:30:06.609                             : en:Chapter 18
  105. 01:35:24.593                             : en:Chapter 19
  106. 01:44:07.658                             : en:Chapter 20