The text below is selected, press Ctrl+C to copy to your clipboard. (⌘+C on Mac) No line numbers will be copied.
Adrift (2018) 720p

15th January 2022 02:53:29 PM | Views: 69
  1. Format                                   : Matroska
  2. Format version                           : Version 4
  3. File size                                : 1.04 GiB
  4. Duration                                 : 1 h 36 min
  5. Overall bit rate                         : 1 544 kb/s
  6. Movie name                               : Adrift (2018) 720p BluRay x264 Dual Audio [Hindi DD2.0 + English BD5.1] ESub 1.04GB [www.MoviezAddiction.art]
  7. Encoded date                             : UTC 2022-01-15 13:14:26
  8. Writing application                      : mkvmerge v47.0.0 ('Black Flag') 64-bit
  9. Writing library                          : libebml v1.3.10 + libmatroska v1.5.2
  10.  
  11. Video
  12. ID                                       : 1
  13. Format                                   : AVC
  14. Format/Info                              : Advanced Video Codec
  15. Format profile                           : [email protected]
  16. Format settings                          : CABAC / 4 Ref Frames
  17. Format settings, CABAC                   : Yes
  18. Format settings, Reference frames        : 4 frames
  19. Codec ID                                 : V_MPEG4/ISO/AVC
  20. Duration                                 : 1 h 36 min
  21. Bit rate                                 : 1 099 kb/s
  22. Width                                    : 1 280 pixels
  23. Height                                   : 536 pixels
  24. Display aspect ratio                     : 2.40:1
  25. Frame rate mode                          : Variable
  26. Frame rate                               : 23.976 (24000/1001) FPS
  27. Color space                              : YUV
  28. Chroma subsampling                       : 4:2:0
  29. Bit depth                                : 8 bits
  30. Scan type                                : Progressive
  31. Bits/(Pixel*Frame)                       : 0.067
  32. Stream size                              : 761 MiB (71%)
  33. Title                                    : [www.MoviezAddiction.art]
  34. Default                                  : Yes
  35. Forced                                   : No
  36.  
  37. Audio #1
  38. ID                                       : 2
  39. Format                                   : AC-3
  40. Format/Info                              : Audio Coding 3
  41. Commercial name                          : Dolby Digital
  42. Codec ID                                 : A_AC3
  43. Duration                                 : 1 h 36 min
  44. Bit rate mode                            : Constant
  45. Bit rate                                 : 224 kb/s
  46. Channel(s)                               : 2 channels
  47. Channel layout                           : L R
  48. Sampling rate                            : 48.0 kHz
  49. Frame rate                               : 31.250 FPS (1536 SPF)
  50. Compression mode                         : Lossy
  51. Stream size                              : 155 MiB (15%)
  52. Title                                    : [www.MoviezAddiction.art] - Hindi
  53. Language                                 : Hindi
  54. Service kind                             : Complete Main
  55. Default                                  : Yes
  56. Forced                                   : No
  57.  
  58. Audio #2
  59. ID                                       : 3
  60. Format                                   : AAC LC SBR
  61. Format/Info                              : Advanced Audio Codec Low Complexity with Spectral Band Replication
  62. Commercial name                          : HE-AAC
  63. Format settings                          : Explicit
  64. Codec ID                                 : A_AAC-2
  65. Duration                                 : 1 h 36 min
  66. Bit rate                                 : 192 kb/s
  67. Channel(s)                               : 6 channels
  68. Channel layout                           : C L R Ls Rs LFE
  69. Sampling rate                            : 48.0 kHz
  70. Frame rate                               : 23.438 FPS (2048 SPF)
  71. Compression mode                         : Lossy
  72. Stream size                              : 132 MiB (12%)
  73. Title                                    : [www.MoviezAddiction.art] - English
  74. Language                                 : English
  75. Default                                  : No
  76. Forced                                   : No
  77.  
  78. Text
  79. ID                                       : 4
  80. Format                                   : PGS
  81. Codec ID                                 : S_HDMV/PGS
  82. Codec ID/Info                            : Picture based subtitle format used on BDs/HD-DVDs
  83. Duration                                 : 1 h 28 min
  84. Bit rate                                 : 31.1 kb/s
  85. Count of elements                        : 1990
  86. Stream size                              : 19.6 MiB (2%)
  87. Title                                    : [www.MoviezAddiction.art] - English [SDH] [PGS]
  88. Language                                 : English
  89. Default                                  : Yes
  90. Forced                                   : No
  91.  
  92. Menu
  93. 00:00:00.000                             : en:Chapter 1
  94. 00:05:18.944                             : en:Chapter 2
  95. 00:08:04.401                             : en:Chapter 3
  96. 00:14:01.257                             : en:Chapter 4
  97. 00:19:38.010                             : en:Chapter 5
  98. 00:24:46.568                             : en:Chapter 6
  99. 00:29:42.572                             : en:Chapter 7
  100. 00:34:45.709                             : en:Chapter 8
  101. 00:37:20.947                             : en:Chapter 9
  102. 00:43:30.024                             : en:Chapter 10
  103. 00:49:43.564                             : en:Chapter 11
  104. 00:52:40.532                             : en:Chapter 12
  105. 00:58:12.447                             : en:Chapter 13
  106. 01:06:31.029                             : en:Chapter 14
  107. 01:11:19.650                             : en:Chapter 15
  108. 01:14:07.151                             : en:Chapter 16
  109. 01:18:06.974                             : en:Chapter 17
  110. 01:24:15.550                             : en:Chapter 18
  111. 01:27:22.446                             : en:Chapter 19
  112. 01:31:34.489                             : en:Chapter 20