The text below is selected, press Ctrl+C to copy to your clipboard. (⌘+C on Mac) No line numbers will be copied.
Monster House (2006) 480p

13th September 2020 07:40:55 AM | Views: 16
  1. Format                                   : Matroska
  2. Format version                           : Version 4
  3. File size                                : 333 MiB
  4. Duration                                 : 1 h 30 min
  5. Overall bit rate                         : 514 kb/s
  6. Movie name                               : Monster House (2006) 480p Bluray x264 Dual Audio [ Hindi DD2.0 + English DD2.0 ] ESub 333MB [www.MoviezAddiction.space]
  7. Encoded date                             : UTC 2020-09-13 05:30:28
  8. Writing application                      : mkvmerge v48.0.0 ('Fortress Around Your Heart') 64-bit
  9. Writing library                          : libebml v1.4.0 + libmatroska v1.6.0
  10.  
  11. Video
  12. ID                                       : 2
  13. Format                                   : AVC
  14. Format/Info                              : Advanced Video Codec
  15. Format profile                           : [email protected]
  16. Format settings                          : CABAC / 5 Ref Frames
  17. Format settings, CABAC                   : Yes
  18. Format settings, Reference frames        : 5 frames
  19. Codec ID                                 : V_MPEG4/ISO/AVC
  20. Duration                                 : 1 h 30 min
  21. Bit rate                                 : 403 kb/s
  22. Width                                    : 862 pixels
  23. Height                                   : 360 pixels
  24. Display aspect ratio                     : 2.40:1
  25. Frame rate mode                          : Constant
  26. Frame rate                               : 23.976 (24000/1001) FPS
  27. Color space                              : YUV
  28. Chroma subsampling                       : 4:2:0
  29. Bit depth                                : 8 bits
  30. Scan type                                : Progressive
  31. Bits/(Pixel*Frame)                       : 0.054
  32. Stream size                              : 260 MiB (78%)
  33. Title                                    : [www.MoviezAddiction.space]
  34. Writing library                          : x264 core 152 r2851 ba24899
  35. Encoding settings                        : cabac=1 / ref=5 / deblock=1:-1:-1 / analyse=0x3:0x113 / me=umh / subme=8 / psy=1 / psy_rd=1.00:0.15 / mixed_ref=1 / me_range=16 / chroma_me=1 / trellis=2 / 8x8dct=1 / cqm=0 / deadzone=21,11 / fast_pskip=1 / chroma_qp_offset=-3 / threads=11 / lookahead_threads=1 / sliced_threads=0 / nr=0 / decimate=1 / interlaced=0 / bluray_compat=0 / constrained_intra=0 / bframes=3 / b_pyramid=2 / b_adapt=1 / b_bias=0 / direct=3 / weightb=1 / open_gop=0 / weightp=2 / keyint=250 / keyint_min=23 / scenecut=40 / intra_refresh=0 / rc_lookahead=50 / rc=2pass / mbtree=1 / bitrate=403 / ratetol=1.0 / qcomp=0.60 / qpmin=0 / qpmax=69 / qpstep=4 / cplxblur=20.0 / qblur=0.5 / vbv_maxrate=7500 / vbv_bufsize=9000 / nal_hrd=none / filler=0 / ip_ratio=1.40 / aq=3:0.80
  36. Default                                  : Yes
  37. Forced                                   : No
  38. Color range                              : Limited
  39. Color primaries                          : BT.709
  40. Matrix coefficients                      : BT.709
  41.  
  42. Audio #1
  43. ID                                       : 3
  44. Format                                   : AAC LC SBR
  45. Format/Info                              : Advanced Audio Codec Low Complexity with Spectral Band Replication
  46. Commercial name                          : HE-AAC
  47. Format settings                          : Explicit
  48. Codec ID                                 : A_AAC-2
  49. Duration                                 : 1 h 30 min
  50. Bit rate                                 : 56.4 kb/s
  51. Channel(s)                               : 2 channels
  52. Channel layout                           : L R
  53. Sampling rate                            : 48.0 kHz
  54. Frame rate                               : 23.438 FPS (2048 SPF)
  55. Compression mode                         : Lossy
  56. Delay relative to video                  : 31 ms
  57. Stream size                              : 36.5 MiB (11%)
  58. Title                                    : [www.MoviezAddiction.space]
  59. Language                                 : English
  60. Default                                  : No
  61. Forced                                   : No
  62.  
  63. Audio #2
  64. ID                                       : 4
  65. Format                                   : AAC LC
  66. Format/Info                              : Advanced Audio Codec Low Complexity
  67. Codec ID                                 : A_AAC-2
  68. Duration                                 : 1 h 30 min
  69. Bit rate                                 : 53.4 kb/s
  70. Channel(s)                               : 2 channels
  71. Channel layout                           : L R
  72. Sampling rate                            : 48.0 kHz
  73. Frame rate                               : 46.875 FPS (1024 SPF)
  74. Compression mode                         : Lossy
  75. Stream size                              : 34.6 MiB (10%)
  76. Title                                    : [www.MoviezAddiction.space]
  77. Language                                 : Hindi
  78. Default                                  : Yes
  79. Forced                                   : Yes
  80.  
  81. Text
  82. ID                                       : 1
  83. Format                                   : UTF-8
  84. Codec ID                                 : S_TEXT/UTF8
  85. Codec ID/Info                            : UTF-8 Plain Text
  86. Duration                                 : 1 h 28 min
  87. Bit rate                                 : 45 b/s
  88. Count of elements                        : 985
  89. Stream size                              : 29.2 KiB (0%)
  90. Title                                    : [www.MoviezAddiction.space]
  91. Language                                 : English
  92. Default                                  : Yes
  93. Forced                                   : Yes