The text below is selected, press Ctrl+C to copy to your clipboard. (⌘+C on Mac) No line numbers will be copied.
Encanto (2021) 1080p

21st January 2022 05:03:10 AM | Views: 71
  1. Format                                   : Matroska
  2. Format version                           : Version 4
  3. File size                                : 6.46 GiB
  4. Duration                                 : 1 h 42 min
  5. Overall bit rate mode                    : Variable
  6. Overall bit rate                         : 9 057 kb/s
  7. Movie name                               : Encanto (2021) 1080p BluRay x264 Dual Audio [Hindi DDP5.1 + English DTS-HD MA 7.1] ESub 6.45GB [www.MoviezAddiction.art]
  8. Encoded date                             : UTC 2022-01-21 03:15:03
  9. Writing application                      : mkvmerge v47.0.0 ('Black Flag') 64-bit
  10. Writing library                          : libebml v1.3.10 + libmatroska v1.5.2
  11.  
  12. Video
  13. ID                                       : 1
  14. Format                                   : AVC
  15. Format/Info                              : Advanced Video Codec
  16. Format profile                           : [email protected]
  17. Format settings                          : CABAC / 4 Ref Frames
  18. Format settings, CABAC                   : Yes
  19. Format settings, Reference frames        : 4 frames
  20. Codec ID                                 : V_MPEG4/ISO/AVC
  21. Duration                                 : 1 h 42 min
  22. Bit rate                                 : 4 000 kb/s
  23. Width                                    : 1 920 pixels
  24. Height                                   : 1 036 pixels
  25. Display aspect ratio                     : 1.85:1
  26. Frame rate mode                          : Variable
  27. Frame rate                               : 23.976 (24000/1001) FPS
  28. Color space                              : YUV
  29. Chroma subsampling                       : 4:2:0
  30. Bit depth                                : 8 bits
  31. Scan type                                : Progressive
  32. Bits/(Pixel*Frame)                       : 0.084
  33. Stream size                              : 2.85 GiB (44%)
  34. Title                                    : [www.MoviezAddiction.art]
  35. Default                                  : Yes
  36. Forced                                   : No
  37.  
  38. Audio #1
  39. ID                                       : 2
  40. Format                                   : E-AC-3
  41. Format/Info                              : Enhanced AC-3
  42. Commercial name                          : Dolby Digital Plus
  43. Codec ID                                 : A_EAC3
  44. Duration                                 : 1 h 42 min
  45. Bit rate mode                            : Constant
  46. Bit rate                                 : 192 kb/s
  47. Channel(s)                               : 6 channels
  48. Channel layout                           : L R C LFE Ls Rs
  49. Sampling rate                            : 48.0 kHz
  50. Frame rate                               : 31.250 FPS (1536 SPF)
  51. Compression mode                         : Lossy
  52. Delay relative to video                  : 16 ms
  53. Stream size                              : 140 MiB (2%)
  54. Title                                    : [www.MoviezAddiction.art] - Hindi
  55. Language                                 : Hindi
  56. Service kind                             : Complete Main
  57. Default                                  : Yes
  58. Forced                                   : No
  59.  
  60. Audio #2
  61. ID                                       : 3
  62. Format                                   : DTS XLL
  63. Format/Info                              : Digital Theater Systems
  64. Commercial name                          : DTS-HD Master Audio
  65. Codec ID                                 : A_DTS
  66. Duration                                 : 1 h 42 min
  67. Bit rate mode                            : Variable
  68. Bit rate                                 : 4 814 kb/s
  69. Channel(s)                               : 8 channels
  70. Channel layout                           : C L R LFE Lb Rb Lss Rss
  71. Sampling rate                            : 48.0 kHz
  72. Frame rate                               : 93.750 FPS (512 SPF)
  73. Bit depth                                : 24 bits
  74. Compression mode                         : Lossless
  75. Stream size                              : 3.43 GiB (53%)
  76. Title                                    : [www.MoviezAddiction.art] - English
  77. Language                                 : English
  78. Default                                  : No
  79. Forced                                   : No
  80.  
  81. Text
  82. ID                                       : 4
  83. Format                                   : PGS
  84. Codec ID                                 : S_HDMV/PGS
  85. Codec ID/Info                            : Picture based subtitle format used on BDs/HD-DVDs
  86. Duration                                 : 1 h 36 min
  87. Bit rate                                 : 49.7 kb/s
  88. Count of elements                        : 3674
  89. Stream size                              : 34.3 MiB (1%)
  90. Title                                    : [www.MoviezAddiction.art] - English [PGS]
  91. Language                                 : English
  92. Default                                  : Yes
  93. Forced                                   : No
  94.  
  95. Menu
  96. 00:00:00.000                             : Chapter 01
  97. 00:03:57.654                             : Chapter 02
  98. 00:09:49.297                             : Chapter 03
  99. 00:15:07.573                             : Chapter 04
  100. 00:16:54.889                             : Chapter 05
  101. 00:21:48.807                             : Chapter 06
  102. 00:24:54.910                             : Chapter 07
  103. 00:28:58.612                             : Chapter 08
  104. 00:31:10.619                             : Chapter 09
  105. 00:38:35.104                             : Chapter 10
  106. 00:44:57.820                             : Chapter 11
  107. 00:53:39.967                             : Chapter 12
  108. 01:01:22.345                             : Chapter 13
  109. 01:06:28.067                             : Chapter 14
  110. 01:11:41.255                             : Chapter 15
  111. 01:16:38.135                             : Chapter 16
  112. 01:24:25.394                             : Chapter 17
  113. 01:31:02.207                             : Chapter 18