The text below is selected, press Ctrl+C to copy to your clipboard. (⌘+C on Mac) No line numbers will be copied.
The Croods (2013) 1080p BluRay...

23rd November 2022 04:26:01 AM | Views: 24
  1. Format                                   : Matroska
  2. Format version                           : Version 4
  3. File size                                : 3.19 GiB
  4. Duration                                 : 1 h 38 min
  5. Overall bit rate                         : 4 632 kb/s
  6. Movie name                               : The Croods (2013) 1080p BluRay x265 10bit HEVC Dual Audio [Hindi DTS 5.1 + English DTS 5.1] ESub 3.19GB [MoviezAddiction.life]
  7. Encoded date                             : UTC 2022-11-22 07:47:35
  8. Writing application                      : mkvmerge v72.0.0 ('Minuano (Six-eight)') 64-bit
  9. Writing library                          : libebml v1.4.4 + libmatroska v1.7.1
  10.  
  11. Video
  12. ID                                       : 1
  13. Format                                   : HEVC
  14. Format/Info                              : High Efficiency Video Coding
  15. Format profile                           : Main [email protected]@Main
  16. Codec ID                                 : V_MPEGH/ISO/HEVC
  17. Duration                                 : 1 h 38 min
  18. Bit rate                                 : 2 331 kb/s
  19. Width                                    : 1 920 pixels
  20. Height                                   : 816 pixels
  21. Display aspect ratio                     : 2.35:1
  22. Frame rate mode                          : Constant
  23. Frame rate                               : 23.976 (24000/1001) FPS
  24. Color space                              : YUV
  25. Chroma subsampling                       : 4:2:0
  26. Bit depth                                : 10 bits
  27. Bits/(Pixel*Frame)                       : 0.062
  28. Stream size                              : 1.61 GiB (50%)
  29. Default                                  : Yes
  30. Forced                                   : No
  31.  
  32. Audio #1
  33. ID                                       : 2
  34. Format                                   : DTS
  35. Format/Info                              : Digital Theater Systems
  36. Codec ID                                 : A_DTS
  37. Duration                                 : 1 h 38 min
  38. Bit rate mode                            : Constant
  39. Bit rate                                 : 768 kb/s
  40. Channel(s)                               : 6 channels
  41. Channel layout                           : C L R Ls Rs LFE
  42. Sampling rate                            : 48.0 kHz
  43. Frame rate                               : 93.750 FPS (512 SPF)
  44. Bit depth                                : 24 bits
  45. Compression mode                         : Lossy
  46. Delay relative to video                  : -1 s 708 ms
  47. Stream size                              : 542 MiB (17%)
  48. Title                                    : Hindi
  49. Language                                 : Hindi
  50. Default                                  : Yes
  51. Forced                                   : No
  52.  
  53. Audio #2
  54. ID                                       : 3
  55. Format                                   : DTS
  56. Format/Info                              : Digital Theater Systems
  57. Codec ID                                 : A_DTS
  58. Duration                                 : 1 h 38 min
  59. Bit rate mode                            : Constant
  60. Bit rate                                 : 1 509 kb/s
  61. Channel(s)                               : 6 channels
  62. Channel layout                           : C L R Ls Rs LFE
  63. Sampling rate                            : 48.0 kHz
  64. Frame rate                               : 93.750 FPS (512 SPF)
  65. Bit depth                                : 24 bits
  66. Compression mode                         : Lossy
  67. Delay relative to video                  : -1 s 708 ms
  68. Stream size                              : 1.04 GiB (33%)
  69. Title                                    : English
  70. Language                                 : English
  71. Default                                  : No
  72. Forced                                   : No
  73.  
  74. Text
  75. ID                                       : 4
  76. Format                                   : PGS
  77. Codec ID                                 : S_HDMV/PGS
  78. Codec ID/Info                            : Picture based subtitle format used on BDs/HD-DVDs
  79. Duration                                 : 1 h 28 min
  80. Bit rate                                 : 25.1 kb/s
  81. Frame rate                               : 0.383 FPS
  82. Count of elements                        : 2042
  83. Stream size                              : 15.9 MiB (0%)
  84. Title                                    : English [PGS]
  85. Language                                 : English
  86. Default                                  : Yes
  87. Forced                                   : No
  88.  
  89. Menu
  90. 00:00:01.708                             : en:Chapter 1
  91. 00:02:36.696                             : en:Chapter 2
  92. 00:04:53.458                             : en:Chapter 3
  93. 00:09:02.957                             : en:Chapter 4
  94. 00:12:22.823                             : en:Chapter 5
  95. 00:14:06.510                             : en:Chapter 6
  96. 00:18:34.737                             : en:Chapter 7
  97. 00:21:58.690                             : en:Chapter 8
  98. 00:23:26.445                             : en:Chapter 9
  99. 00:26:51.483                             : en:Chapter 10
  100. 00:28:38.840                             : en:Chapter 11
  101. 00:30:27.365                             : en:Chapter 12
  102. 00:32:50.341                             : en:Chapter 13
  103. 00:36:05.078                             : en:Chapter 14
  104. 00:38:35.269                             : en:Chapter 15
  105. 00:41:36.242                             : en:Chapter 16
  106. 00:44:40.551                             : en:Chapter 17
  107. 00:48:04.338                             : en:Chapter 18
  108. 00:52:12.669                             : en:Chapter 19
  109. 00:55:19.189                             : en:Chapter 20
  110. 01:00:16.486                             : en:Chapter 21
  111. 01:03:59.792                             : en:Chapter 22
  112. 01:05:50.444                             : en:Chapter 23
  113. 01:08:45.745                             : en:Chapter 24
  114. 01:10:48.993                             : en:Chapter 25
  115. 01:12:38.852                             : en:Chapter 26
  116. 01:14:03.354                             : en:Chapter 27
  117. 01:19:50.283                             : en:Chapter 28
  118. 01:23:11.568                             : en:Chapter 29
  119. 01:25:18.445                             : en:Chapter 30
  120. 01:28:06.029                             : en:Chapter 31
  121. 01:30:03.938                             : en:Chapter 32