The text below is selected, press Ctrl+C to copy to your clipboard. (⌘+C on Mac) No line numbers will be copied.
Holly slept over

18th September 2020 06:57:31 AM | Views: 25
  1. General
  2. Unique ID                                : 224306341726911697637110052356657361470 (0xA8BFD47C810B91CDBD099020CDB5B23E)
  3. Complete name                            :  Holly Slept Over 2020 1080p WEB-Rip x264 (Hindi DD 5.1 + English DD 5.1) ~LustMovies.pro~ (3.6 G).mkv
  4. Format                                   : Matroska
  5. Format version                           : Version 4
  6. File size                                : 3.60 GiB
  7. Duration                                 : 1 h 27 min
  8. Overall bit rate                         : 5 870 kb/s
  9. Movie name                               : LustMovies.pro | Holly Slept Over 2020
  10. Encoded date                             : UTC 2020-09-18 04:45:20
  11. Writing application                      : mkvmerge v50.0.0 ('Awakenings') 64-bit
  12. Writing library                          : libebml v1.4.0 + libmatroska v1.6.2
  13.  
  14. Video
  15. ID                                       : 1
  16. Format                                   : AVC
  17. Format/Info                              : Advanced Video Codec
  18. Format profile                           : [email protected]
  19. Format settings                          : CABAC / 5 Ref Frames
  20. Format settings, CABAC                   : Yes
  21. Format settings, Reference frames        : 5 frames
  22. Codec ID                                 : V_MPEG4/ISO/AVC
  23. Duration                                 : 1 h 27 min
  24. Bit rate                                 : 4 587 kb/s
  25. Width                                    : 1 920 pixels
  26. Height                                   : 796 pixels
  27. Display aspect ratio                     : 2.40:1
  28. Frame rate mode                          : Constant
  29. Frame rate                               : 23.976 (23976/1000) FPS
  30. Color space                              : YUV
  31. Chroma subsampling                       : 4:2:0
  32. Bit depth                                : 8 bits
  33. Scan type                                : Progressive
  34. Bits/(Pixel*Frame)                       : 0.125
  35. Stream size                              : 2.81 GiB (78%)
  36. Title                                    : LustMovies.pro
  37. Language                                 : English
  38. Default                                  : Yes
  39. Forced                                   : No
  40. Color range                              : Limited
  41. Color primaries                          : BT.709
  42. Transfer characteristics                 : BT.709
  43. Matrix coefficients                      : BT.709
  44.  
  45. Audio #1
  46. ID                                       : 2
  47. Format                                   : E-AC-3
  48. Format/Info                              : Enhanced AC-3
  49. Commercial name                          : Dolby Digital Plus
  50. Codec ID                                 : A_EAC3
  51. Duration                                 : 1 h 27 min
  52. Bit rate mode                            : Constant
  53. Bit rate                                 : 640 kb/s
  54. Channel(s)                               : 6 channels
  55. Channel layout                           : L R C LFE Ls Rs
  56. Sampling rate                            : 48.0 kHz
  57. Frame rate                               : 31.250 FPS (1536 SPF)
  58. Compression mode                         : Lossy
  59. Delay relative to video                  : -42 ms
  60. Stream size                              : 402 MiB (11%)
  61. Title                                    : LustMovies.pro
  62. Language                                 : Hindi
  63. Service kind                             : Complete Main
  64. Default                                  : Yes
  65. Forced                                   : No
  66.  
  67. Audio #2
  68. ID                                       : 3
  69. Format                                   : E-AC-3
  70. Format/Info                              : Enhanced AC-3
  71. Commercial name                          : Dolby Digital Plus
  72. Codec ID                                 : A_EAC3
  73. Duration                                 : 1 h 27 min
  74. Bit rate mode                            : Constant
  75. Bit rate                                 : 640 kb/s
  76. Channel(s)                               : 6 channels
  77. Channel layout                           : L R C LFE Ls Rs
  78. Sampling rate                            : 48.0 kHz
  79. Frame rate                               : 31.250 FPS (1536 SPF)
  80. Compression mode                         : Lossy
  81. Delay relative to video                  : -42 ms
  82. Stream size                              : 402 MiB (11%)
  83. Title                                    : LustMovies.pro
  84. Language                                 : English
  85. Service kind                             : Complete Main
  86. Default                                  : No
  87. Forced                                   : No
  88.  
  89. Text #1
  90. ID                                       : 4
  91. Format                                   : UTF-8
  92. Codec ID                                 : S_TEXT/UTF8
  93. Codec ID/Info                            : UTF-8 Plain Text
  94. Duration                                 : 1 h 27 min
  95. Bit rate                                 : 88 b/s
  96. Count of elements                        : 1751
  97. Stream size                              : 56.6 KiB (0%)
  98. Title                                    : LustMovies.pro
  99. Language                                 : English
  100. Default                                  : No
  101. Forced                                   : No
  102.  
  103. Text #2
  104. ID                                       : 5
  105. Format                                   : UTF-8
  106. Codec ID                                 : S_TEXT/UTF8
  107. Codec ID/Info                            : UTF-8 Plain Text
  108. Duration                                 : 1 h 26 min
  109. Bit rate                                 : 204 b/s
  110. Count of elements                        : 1238
  111. Stream size                              : 130 KiB (0%)
  112. Title                                    : LustMovies.pro
  113. Language                                 : Hindi
  114. Default                                  : No
  115. Forced                                   : No
  116.  
  117. General
  118. Unique ID                                : 156100843370720420954005655455344702309 (0x756FEDC9B70CBF4497FFAE1F38053365)
  119. Complete name                            :  Holly Slept Over 2020 720p WEB-Rip x264 (Hindi DD 5.1 + English DD 5.1) ~LustMovies.pro~ (875.6 M).mkv
  120. Format                                   : Matroska
  121. Format version                           : Version 4
  122. File size                                : 876 MiB
  123. Duration                                 : 1 h 27 min
  124. Overall bit rate                         : 1 395 kb/s
  125. Movie name                               : LustMovies.pro | Holly Slept Over 2020
  126. Encoded date                             : UTC 2020-09-17 21:06:38
  127. Writing application                      : HandBrake 1.2.1 2019021900
  128. Writing library                          : Lavf58.20.100
  129. ErrorDetectionType                       : Per level 1
  130.  
  131. Video
  132. ID                                       : 1
  133. Format                                   : AVC
  134. Format/Info                              : Advanced Video Codec
  135. Format profile                           : [email protected]
  136. Format settings                          : CABAC / 4 Ref Frames
  137. Format settings, CABAC                   : Yes
  138. Format settings, Reference frames        : 4 frames
  139. Codec ID                                 : V_MPEG4/ISO/AVC
  140. Duration                                 : 1 h 27 min
  141. Bit rate                                 : 950 kb/s
  142. Width                                    : 1 280 pixels
  143. Height                                   : 720 pixels
  144. Display aspect ratio                     : 2.40:1
  145. Frame rate mode                          : Constant
  146. Frame rate                               : 23.976 (24000/1001) FPS
  147. Color space                              : YUV
  148. Chroma subsampling                       : 4:2:0
  149. Bit depth                                : 8 bits
  150. Scan type                                : Progressive
  151. Bits/(Pixel*Frame)                       : 0.043
  152. Stream size                              : 577 MiB (66%)
  153. Title                                    : LustMovies.pro
  154. Writing library                          : x264 core 152 r2854 e9a5903
  155. Encoding settings                        : cabac=1 / ref=1 / deblock=1:-1:-1 / analyse=0x3:0x113 / me=hex / subme=2 / psy=1 / psy_rd=1.00:0.15 / mixed_ref=0 / me_range=16 / chroma_me=1 / trellis=0 / 8x8dct=1 / cqm=0 / deadzone=21,11 / fast_pskip=1 / chroma_qp_offset=0 / threads=22 / lookahead_threads=5 / sliced_threads=0 / nr=0 / decimate=1 / interlaced=0 / bluray_compat=0 / constrained_intra=0 / bframes=3 / b_pyramid=2 / b_adapt=1 / b_bias=0 / direct=1 / weightb=1 / open_gop=0 / weightp=1 / keyint=240 / keyint_min=24 / scenecut=40 / intra_refresh=0 / rc_lookahead=10 / rc=abr / mbtree=1 / bitrate=950 / ratetol=1.0 / qcomp=0.60 / qpmin=0 / qpmax=69 / qpstep=4 / vbv_maxrate=17500 / vbv_bufsize=17500 / nal_hrd=none / filler=0 / ip_ratio=1.40 / aq=1:1.00
  156. Default                                  : Yes
  157. Forced                                   : No
  158. Color range                              : Limited
  159. Color primaries                          : BT.709
  160. Transfer characteristics                 : BT.709
  161. Matrix coefficients                      : BT.709
  162. Duration_Source                          : General_Duration
  163.  
  164. Audio #1
  165. ID                                       : 2
  166. Format                                   : AC-3
  167. Format/Info                              : Audio Coding 3
  168. Commercial name                          : Dolby Digital
  169. Codec ID                                 : A_AC3
  170. Duration                                 : 1 h 27 min
  171. Bit rate mode                            : Constant
  172. Bit rate                                 : 224 kb/s
  173. Channel(s)                               : 6 channels
  174. Channel layout                           : L R C LFE Ls Rs
  175. Sampling rate                            : 48.0 kHz
  176. Frame rate                               : 31.250 FPS (1536 SPF)
  177. Compression mode                         : Lossy
  178. Delay relative to video                  : -47 ms
  179. Stream size                              : 141 MiB (16%)
  180. Title                                    : LustMovies.pro
  181. Language                                 : Hindi
  182. Service kind                             : Complete Main
  183. Default                                  : Yes
  184. Forced                                   : No
  185. Duration_Source                          : General_Duration
  186.  
  187. Audio #2
  188. ID                                       : 3
  189. Format                                   : AC-3
  190. Format/Info                              : Audio Coding 3
  191. Commercial name                          : Dolby Digital
  192. Codec ID                                 : A_AC3
  193. Duration                                 : 1 h 27 min
  194. Bit rate mode                            : Constant
  195. Bit rate                                 : 224 kb/s
  196. Channel(s)                               : 6 channels
  197. Channel layout                           : L R C LFE Ls Rs
  198. Sampling rate                            : 48.0 kHz
  199. Frame rate                               : 31.250 FPS (1536 SPF)
  200. Compression mode                         : Lossy
  201. Delay relative to video                  : -47 ms
  202. Stream size                              : 141 MiB (16%)
  203. Title                                    : LustMovies.pro
  204. Language                                 : English
  205. Service kind                             : Complete Main
  206. Default                                  : No
  207. Forced                                   : No
  208. Duration_Source                          : General_Duration
  209.  
  210. Text #1
  211. ID                                       : 4
  212. Format                                   : ASS
  213. Codec ID                                 : S_TEXT/ASS
  214. Codec ID/Info                            : Advanced Sub Station Alpha
  215. Compression mode                         : Lossless
  216. Title                                    : LustMovies.pro
  217. Language                                 : English
  218. Default                                  : No
  219. Forced                                   : No
  220.  
  221. Text #2
  222. ID                                       : 5
  223. Format                                   : ASS
  224. Codec ID                                 : S_TEXT/ASS
  225. Codec ID/Info                            : Advanced Sub Station Alpha
  226. Compression mode                         : Lossless
  227. Title                                    : LustMovies.pro
  228. Language                                 : Hindi
  229. Default                                  : No
  230. Forced                                   : No
  231.  
  232. General
  233. Unique ID                                : 212325746190909269551018334573842631213 (0x9FBC7385785F031C96B86754345B8A2D)
  234. Complete name                            :  Holly Slept Over 2020 480p WEB-Rip x264 (Hindi DD 2.0 + English DD 2.0) ~LustMovies.pro~ (404.5 M).mkv
  235. Format                                   : Matroska
  236. Format version                           : Version 4
  237. File size                                : 404 MiB
  238. Duration                                 : 1 h 27 min
  239. Overall bit rate                         : 644 kb/s
  240. Movie name                               : LustMovies.pro | Holly Slept Over 2020
  241. Encoded date                             : UTC 2020-09-18 04:12:19
  242. Writing application                      : HandBrake 1.2.1 2019021900
  243. Writing library                          : Lavf58.20.100
  244. ErrorDetectionType                       : Per level 1
  245.  
  246. Video
  247. ID                                       : 1
  248. Format                                   : AVC
  249. Format/Info                              : Advanced Video Codec
  250. Format profile                           : [email protected]
  251. Format settings                          : CABAC / 4 Ref Frames
  252. Format settings, CABAC                   : Yes
  253. Format settings, Reference frames        : 4 frames
  254. Codec ID                                 : V_MPEG4/ISO/AVC
  255. Duration                                 : 1 h 27 min
  256. Bit rate                                 : 450 kb/s
  257. Width                                    : 720 pixels
  258. Height                                   : 480 pixels
  259. Display aspect ratio                     : 2.40:1
  260. Frame rate mode                          : Constant
  261. Frame rate                               : 23.976 (24000/1001) FPS
  262. Color space                              : YUV
  263. Chroma subsampling                       : 4:2:0
  264. Bit depth                                : 8 bits
  265. Scan type                                : Progressive
  266. Bits/(Pixel*Frame)                       : 0.054
  267. Stream size                              : 276 MiB (68%)
  268. Title                                    : LustMovies.pro
  269. Writing library                          : x264 core 152 r2854 e9a5903
  270. Encoding settings                        : cabac=1 / ref=1 / deblock=1:-1:-1 / analyse=0x1:0x111 / me=hex / subme=2 / psy=1 / psy_rd=1.00:0.15 / mixed_ref=0 / me_range=16 / chroma_me=1 / trellis=0 / 8x8dct=0 / cqm=0 / deadzone=21,11 / fast_pskip=1 / chroma_qp_offset=0 / threads=15 / lookahead_threads=3 / sliced_threads=0 / nr=0 / decimate=1 / interlaced=0 / bluray_compat=0 / constrained_intra=0 / bframes=3 / b_pyramid=2 / b_adapt=1 / b_bias=0 / direct=1 / weightb=1 / open_gop=0 / weightp=1 / keyint=240 / keyint_min=24 / scenecut=40 / intra_refresh=0 / rc_lookahead=10 / rc=abr / mbtree=1 / bitrate=450 / ratetol=1.0 / qcomp=0.60 / qpmin=0 / qpmax=69 / qpstep=4 / vbv_maxrate=14000 / vbv_bufsize=14000 / nal_hrd=none / filler=0 / ip_ratio=1.40 / aq=1:1.00
  271. Default                                  : Yes
  272. Forced                                   : No
  273. Color range                              : Limited
  274. Color primaries                          : BT.709
  275. Transfer characteristics                 : BT.709
  276. Matrix coefficients                      : BT.709
  277. Duration_Source                          : General_Duration
  278.  
  279. Audio #1
  280. ID                                       : 2
  281. Format                                   : AC-3
  282. Format/Info                              : Audio Coding 3
  283. Commercial name                          : Dolby Digital
  284. Codec ID                                 : A_AC3
  285. Duration                                 : 1 h 27 min
  286. Bit rate mode                            : Constant
  287. Bit rate                                 : 96.0 kb/s
  288. Channel(s)                               : 2 channels
  289. Channel layout                           : L R
  290. Sampling rate                            : 48.0 kHz
  291. Frame rate                               : 31.250 FPS (1536 SPF)
  292. Compression mode                         : Lossy
  293. Delay relative to video                  : -47 ms
  294. Stream size                              : 60.2 MiB (15%)
  295. Title                                    : LustMovies.pro
  296. Language                                 : Hindi
  297. Service kind                             : Complete Main
  298. Default                                  : Yes
  299. Forced                                   : No
  300. Duration_Source                          : General_Duration
  301.  
  302. Audio #2
  303. ID                                       : 3
  304. Format                                   : AC-3
  305. Format/Info                              : Audio Coding 3
  306. Commercial name                          : Dolby Digital
  307. Codec ID                                 : A_AC3
  308. Duration                                 : 1 h 27 min
  309. Bit rate mode                            : Constant
  310. Bit rate                                 : 96.0 kb/s
  311. Channel(s)                               : 2 channels
  312. Channel layout                           : L R
  313. Sampling rate                            : 48.0 kHz
  314. Frame rate                               : 31.250 FPS (1536 SPF)
  315. Compression mode                         : Lossy
  316. Delay relative to video                  : -47 ms
  317. Stream size                              : 60.2 MiB (15%)
  318. Title                                    : LustMovies.pro
  319. Language                                 : English
  320. Service kind                             : Complete Main
  321. Default                                  : No
  322. Forced                                   : No
  323. Duration_Source                          : General_Duration
  324.  
  325. Text #1
  326. ID                                       : 4
  327. Format                                   : ASS
  328. Codec ID                                 : S_TEXT/ASS
  329. Codec ID/Info                            : Advanced Sub Station Alpha
  330. Compression mode                         : Lossless
  331. Title                                    : LustMovies.pro
  332. Language                                 : English
  333. Default                                  : No
  334. Forced                                   : No
  335.  
  336. Text #2
  337. ID                                       : 5
  338. Format                                   : ASS
  339. Codec ID                                 : S_TEXT/ASS
  340. Codec ID/Info                            : Advanced Sub Station Alpha
  341. Compression mode                         : Lossless
  342. Title                                    : LustMovies.pro
  343. Language                                 : Hindi
  344. Default                                  : No
  345. Forced                                   : No